[ชนโรง] Underworld 5 (2016) มหาสงครามล้างพันธุ์อสูร [พากย์ไทยโรง+อังกฤษ] [MKV] [FILEFENIX] [ONE2UP]

[ชนโรง] Underworld 5 (2016) มหาสงครามล้างพันธุ์อสูร

มหาสงครามล้างพันธุ์อสูรเรื่องราวยังคงดำเนินต่อมา เซลีน นักฆ่าสาวสายพันธ์แวมไพร์ เซลีน แวมไพร์สาวตัวเอกของเรื่อง จะต้องเดินทางเดินทางขึ้นเหนือสู่ดินแดนอันหนาวเย็นเพื่อค้นหาคำตอบบางอย่าง ซึ่งแน่นอนว่าเธอได้นำความอันตรายและผู้ที่ต้องการตามล่าตัวเธอติดตามไปด้วย เราจึงจะได้เห็นฉากการต่อสู้ท่ามกลางหิมะอันดุเดือด ระหว่างแวมไพร์และไลแคน

Underworld.5.ZoomV1.THRONG[load2up.com].mkv
Format : Matroska
Format version : Version 4 / Version 2
File size : 1.55 GiB
Duration : 1 h 21 min
Overall bit rate : 2 725 kb/s
Movie name : Underworld.5.ZoomV1.THRONG[load2up.com] Encoded date : UTC 2016-12-10 14:23:21
Writing application : mkvmerge v9.2.0 (‘Photograph’) 64bit
Writing library : libebml v1.3.3 + libmatroska v1.4.4

Video
ID : 3
Format : MPEG-4 Visual
Format profile : Advanced Simple@L4
Format settings, BVOP : 2
Format settings, QPel : No
Format settings, GMC : No warppoints
Format settings, Matrix : Default (H.263)
Codec ID : V_MS/VFW/FOURCC / DIVX
Codec ID/Info : Project Mayo
Codec ID/Hint : DivX 4
Duration : 1 h 21 min
Bit rate : 1 890 kb/s
Width : 720 pixels
Height : 384 pixels
Display aspect ratio : 1.85:1
Frame rate mode : Constant
Frame rate : 29.970 (29970/1000) FPS
Original frame rate : 29.970 (30000/1001) FPS
Color space : YUV
Chroma subsampling : 4:2:0
Bit depth : 8 bits
Scan type : Progressive
Compression mode : Lossy
Bits/(Pixel*Frame) : 0.228
Stream size : 1.08 GiB (69%)
Title : Underworld Blood Wars 2016 HDCAM
Writing library : XviD 64
Language : English
Default : Yes
Forced : No

Audio #1
ID : 1
Format : AC-3
Format/Info : Audio Coding 3
Mode extension : CM (complete main)
Format settings, Endianness : Big
Codec ID : A_AC3
Duration : 1 h 21 min
Bit rate mode : Constant
Bit rate : 448 kb/s
Channel(s) : 2 channels
Channel positions : Front: L R
Sampling rate : 48.0 kHz
Frame rate : 31.250 FPS (1536 spf)
Compression mode : Lossy
Stream size : 262 MiB (16%)
Title : Thai Rong_AC3 2.0
Language : Thai
Default : Yes
Forced : No

Audio #2
ID : 2
Format : AC-3
Format/Info : Audio Coding 3
Mode extension : CM (complete main)
Format settings, Endianness : Big
Codec ID : A_AC3
Duration : 1 h 21 min
Bit rate mode : Constant
Bit rate : 384 kb/s
Channel(s) : 2 channels
Channel positions : Front: L R
Sampling rate : 48.0 kHz
Frame rate : 31.250 FPS (1536 spf)
Compression mode : Lossy
Stream size : 224 MiB (14%)
Title : English (eng) 2.0
Language : English
Default : No
Forced : No



หมายเหตุ ทุกเว็บโหลดแทนกันได้ แต่ต้องเปลี่ยนชื่อให้เรียงกันด้วย


%d bloggers like this: