[MINI-HD 720P] Phantom Detective – Vanishing Village (2016) [Soundtrack บรรยายไทย+อังกฤษ] [MKV]

[MINI-HD 720P] Phantom Detective – Vanishing Village (2016)

ฮงกิลดง (อีเจฮุน) เป็นนักสืบในองค์กรผิดกฏหมายร่วมกับประธานฮวัง (โกอารา) พวกเขามีหน้าที่ปิดบัญชีเหล่าคนชั่วตามคำสั่งเสียของ ประธานคนก่อนผู้เป็นบิดาของประธานฮวัง ฮงกิลดงมีความสามารถในการตามหาตัวพวกคนชั่วได้ภายในห นึ่งชั่วโมงหรือน้อยกว่านั้น ยกเว้นเพียงแต่ตัวคิมบยองด๊อค (พัคกึนฮยอง) ที่ซ่อนตัวจากสายตาเขาได้อยู่หลายปี คิมบยองด๊อคเป็นผู้ฆ่าแม่ของฮงกิลดงเมื่อครั้งยังเด็ ก ความทรงจำฮงกิลดงเริ่มต้นขึ้นตอน 8 ขวบหลังจากที่แม่ถูกฆ่าตาย
ในที่สุดฮงกิลดงก็รู้ที่อยู่ของคิมบ๊องด๊อคและขับรถไ ปหาเพื่อเอาตัวมันลงนรก แต่ก่อนที่เขาจะถึงที่หมาย คิมบยองด๊อคได้ถูกลักพาตัวไป ภายในบ้านเหลือเพียงหลานสาวทั้งสองคน คือ ดงอี (โนจองอี) และมัลซุน (คิมฮานา) แต่ด้วยแรงแค้น กิลดงจึงพาหลานทั้งสองของศัตรูไปด้วย และตามหาตัวคิมบยองด๊อค ภายหลังกิลดงพบว่าตัวเองกำลังเผชิญกับกลุ่มองค์กรมหา อำนาจแห่งความชั่วร้าย กวังอึนฮเว ผู้วางแผนฆ่าล้างบาง และบยองด็อคก็ติดร่างแหไปกับเหตุการณ์นี้ด้วย

Phantom.Detective.2016.HD.720P.X264.AAC[Load2up.com].mkv
Format : Matroska
Format version : Version 4 / Version 2
File size : 2.74 GiB
Duration : 2 h 6 min
Overall bit rate : 3 106 kb/s
Encoded date : UTC 2017-01-09 15:54:29
Writing application : mkvmerge v9.7.1 (‘Pandemonium’) 64bit
Writing library : libebml v1.3.4 + libmatroska v1.4.5

Video
ID : 1
Format : AVC
Format/Info : Advanced Video Codec
Format profile : [email protected]
Format settings, CABAC : Yes
Format settings, ReFrames : 5 frames
Codec ID : V_MPEG4/ISO/AVC
Duration : 2 h 6 min
Bit rate : 2 800 kb/s
Width : 1 280 pixels
Height : 692 pixels
Display aspect ratio : 1.85:1
Frame rate mode : Constant
Frame rate : 23.976 (24000/1001) FPS
Color space : YUV
Chroma subsampling : 4:2:0
Bit depth : 8 bits
Scan type : Progressive
Bits/(Pixel*Frame) : 0.132
Stream size : 2.45 GiB (90%)
Writing library : x264 core 142 r2431+42 c69a006 tMod [8-bit@all X86_64] Default : Yes
Forced : No

Audio
ID : 2
Format : AAC
Format/Info : Advanced Audio Codec
Format profile : LC
Codec ID : A_AAC
Duration : 2 h 6 min
Bit rate : 320 kb/s
Channel(s) : 2 channels
Channel positions : Front: L R
Sampling rate : 48.0 kHz
Frame rate : 46.875 FPS (1024 spf)
Compression mode : Lossy
Delay relative to video : -43 ms
Stream size : 289 MiB (10%)
Title : Korea
Language : Korean
Default : Yes
Forced : No

Text #1
ID : 3
Format : UTF-8
Codec ID : S_TEXT/UTF8
Codec ID/Info : UTF-8 Plain Text
Duration : 2 h 0 min
Bit rate : 58 b/s
Count of elements : 1429
Stream size : 52.1 KiB (0%)
Title : Eng
Language : English
Default : Yes
Forced : No

Text #2
ID : 4
Format : UTF-8
Codec ID : S_TEXT/UTF8
Codec ID/Info : UTF-8 Plain Text
Duration : 2 h 0 min
Bit rate : 123 b/s
Count of elements : 1371
Stream size : 109 KiB (0%)
Title : Thai
Language : Thai
Default : No
Forced : No



หมายเหตุ ทุกเว็บโหลดแทนกันได้ แต่ต้องเปลี่ยนชื่อให้เรียงกันด้วย

%d bloggers like this: