[MINI-HD 1080P] The Warrior s Gate (2016) นักรบทะลุประตูมหัศจรรย์ [พากย์ไทย 5.1] [ซับจีนฝัง] [MKV] [ONE2UP]

[MINI-HD 1080P] The Warrior s Gate (2016) นักรบทะลุประตูมหัศจรรย์

พูดถึงดินแดนแสนสงบสุขในโลกตะวันออก ที่อยู่มาวันหนึ่งต้องเผชิญกับการรุกรานของเหล่าคนเถื่อนชาวบาร์บาเรียน ที่พยายามบุกยึดครองแผ่นดินอาศัยจนนำสู่เรื่องราวการต่อสู้ของ 2 ชาติพันธุ์ที่แตกต่าง ซึ่งเกี่ยวข้องกับสิ่งลี้ลับ และความมหัศจรรย์เหนือคาดคิด หนึ่งในนั้นก็คือ ”แจ็ค” เด็กชายชาวตะวันตกที่หลุดข้ามมิติมาจากโลกปัจจุบัน และต้องเปลี่ยนชีวิตตัวเองสู่วิถีนักรับที่ต้องต่อสู้ห้ำหั่นเหมือนเรื่องราวในเกม และเขาจำเป็นต้องอาศัยเทคนิคความรู้จากเกมที่เคยเล่น มาใช้เป็นสิ่งที่ช่วยในการชนะสงครามครั้งนี้ อีกทั้งยังต้องช่วยชีวิตเจ้าหญิงของอาณาจักร และเป็นเพื่อนของเขา ให้จงได้

The.Warriors.Gate.2016.1080p.WEBRip.HCSub.x264.AC3[Load2up.com].mkv
Format : Matroska
Format version : Version 4 / Version 2
File size : 2.05 GiB
Duration : 1 h 44 min
Overall bit rate : 2 793 kb/s
Movie name : The.Warriors.Gate.2016.1080p.WEBRip.HCSub.x264.AC3
Encoded date : UTC 2017-02-16 11:25:11
Writing application : mkvmerge v9.2.0 (‘Photograph’) 64bit
Writing library : libebml v1.3.3 + libmatroska v1.4.4

Video
ID : 1
Format : AVC
Format/Info : Advanced Video Codec
Format profile : High@L4
Format settings, CABAC : Yes
Format settings, ReFrames : 3 frames
Codec ID : V_MPEG4/ISO/AVC
Duration : 1 h 44 min
Bit rate : 2 343 kb/s
Width : 1 920 pixels
Height : 800 pixels
Display aspect ratio : 2.40:1
Frame rate mode : Constant
Frame rate : 25.000 FPS
Color space : YUV
Chroma subsampling : 4:2:0
Bit depth : 8 bits
Scan type : Progressive
Bits/(Pixel*Frame) : 0.061
Stream size : 1.72 GiB (84%)
Title : The.Warriors.Gate.2016.1080p.WEBRip.HCSub.x264.AC3
Writing library : qiyi.com vtc-test
Language : English
Default : Yes
Forced : No
Color range : Limited
Color primaries : BT.709
Transfer characteristics : BT.709
Matrix coefficients : BT.709

Audio
ID : 2
Format : AC-3
Format/Info : Audio Coding 3
Mode extension : CM (complete main)
Format settings, Endianness : Big
Codec ID : A_AC3
Duration : 1 h 44 min
Bit rate mode : Constant
Bit rate : 448 kb/s
Channel(s) : 6 channels
Channel positions : Front: L C R, Side: L R, LFE
Sampling rate : 48.0 kHz
Frame rate : 31.250 FPS (1536 spf)
Bit depth : 16 bits
Compression mode : Lossy
Stream size : 336 MiB (16%)
Title : AC3 5.1 Mix From DVD Master
Language : Thai
Default : Yes
Forced : No



หมายเหตุ ทุกเว็บโหลดแทนกันได้ แต่ต้องเปลี่ยนชื่อให้เรียงกันด้วย

%d bloggers like this: