[MINI-HD 1080P] Lights Out (2016) มันออกมาขย้ำ [เสียงไทยโรง] [MKV] [FILEFENIX] [ONE2UP]

Lights Out (2016) มันออกมาขย้ำ

Lights Out สร้างขึ้นจากหนังสั้นของ เดวิด เอฟ. แซนเบิร์ก ที่จะมาเปลี่ยนหนังสั้นให้เป็นภาพยนตร์เรื่องยาวภายใต้การควบคุมของ เจมส์ วาน (ผู้กำกับ The Conjuring) กับเรื่องราวของหญิงสาวคนหนึ่งที่ได้เจอสิ่งผิดปกติหลังจากที่ปิดไฟ ความมืดทำให้คุณกลัว หรืออะไรในความมืดที่ทำคุณกลัว พบกับเรื่องราวอันน่าขนลุกได้ไน

Lights.Out.2016.1080p.WEB-DL.H264.AC3.THRong[Load2up.com].mkv
Format : Matroska
Format version : Version 4 / Version 2
File size : 2.71 GiB
Duration : 1 h 20 min
Overall bit rate : 4 798 kb/s
Movie name : Lights.Out.2016.1080p.WEB-DL.H264.AC3.THRong[Load2up.com] Encoded date : UTC 2016-10-04 06:07:41
Writing application : mkvmerge v8.9.0 (‘Father Daughter’) 64bit
Writing library : libebml v1.3.3 + libmatroska v1.4.4

Video
ID : 1
Format : AVC
Format/Info : Advanced Video Codec
Format profile : High@L4
Format settings, CABAC : Yes
Format settings, ReFrames : 5 frames
Codec ID : V_MPEG4/ISO/AVC
Duration : 1 h 20 min
Bit rate : 4 511 kb/s
Width : 1 916 pixels
Height : 796 pixels
Display aspect ratio : 2.40:1
Frame rate mode : Constant
Frame rate : 23.976 FPS
Color space : YUV
Chroma subsampling : 4:2:0
Bit depth : 8 bits
Scan type : Progressive
Bits/(Pixel*Frame) : 0.123
Stream size : 2.55 GiB (94%)
Title : Lights.Out.2016.1080p.WEB-DL.H264.AC3.THEATER
Language : English
Default : Yes
Forced : Yes
Color range : Limited
Color primaries : BT.709
Transfer characteristics : BT.709
Matrix coefficients : BT.709

Audio
ID : 2
Format : AC-3
Format/Info : Audio Coding 3
Mode extension : CM (complete main)
Format settings, Endianness : Big
Codec ID : A_AC3
Duration : 1 h 20 min
Bit rate mode : Constant
Bit rate : 192 kb/s
Channel(s) : 2 channels
Channel positions : Front: L R
Sampling rate : 48.0 kHz
Frame rate : 31.250 FPS (1536 spf)
Compression mode : Lossy
Stream size : 111 MiB (4%)
Title : TH AC3 THEATER
Language : Thai
Default : Yes
Forced : Yes



หมายเหตุ ทุกเว็บโหลดแทนกันได้ แต่ต้องเปลี่ยนชื่อให้เรียงกันด้วย



%d bloggers like this: