[MINI-HD 1080P] League of Gods (2016) สงครามเทพเจ้า [พากย์ไทย 5.1] [บรรยายฝังจีน + อังกฤษ] [MASTER] [MKV] [FILEFENIX] [ONE2UP]

[MINI-HD 1080P] League of Gods (2016) สงครามเทพเจ้า

League of Gods เป็นภาพยนตร์แนวแอ็คชั่นแฟนตาซีบอกเล่าเรื่องราวในยุคศตวรรษที่ 16 เล่าเรื่องราวแนวอิงประวัติศาสตร์ 1046 ก่อนศริสตกาล เมื่อกษัตริย์โจ้วอ๋อง (เหลียงเจียฮุย) ผู้ชั่วร้ายบ้าสงครามและชอบเสพย์นารีจนไม่เป็นอันบริหารบ้านเมือง ยิ่งไปกว่านั้นโจ้งอ๋องยังหลงสนมเอกอย่างต๋าจี (ฟ่านปิงปิง) โดยเขาไม่เคยรู้เลยว่า นางนั้นคือปีศาจจิ้งจอกที่ปลอมตัวมาเพื่อจุดประสงค์บางอย่าง ความขชั่วร้ายของโจ้วอ๋อง ทำให้บรรดาเหล่าทวยเทพยื่นมือลงมาช่วยเหลือโจวอู่หวัง จากแคว้นโจวในการปราบกษัตริย์ผู้ชั่วร้าย โดยมีเจียงจื่อหยา (เจ็ต ลี) เป็นผู้วางแผนในการพิชิตศึกที่โลก สวรรค์และนรกต้องสะเทือน!!!

League.of.Gods.2016.1080p.WEB-DL.x264.AC3[Loas2up.com].mkv
Format : Matroska
Format version : Version 4 / Version 2
File size : 4.90 GiB
Duration : 1 h 49 min
Overall bit rate : 6 428 kb/s
Movie name : League.of.Gods.2016.1080p.WEB-DL.x264.AC3
Encoded date : UTC 2010-02-22 21:41:31
Writing application : mkvmerge v5.9.0 (‘On The Loose’) built on Dec 9 2012 15:37:01
Writing library : libebml v1.3.0 + libmatroska v1.4.0

Video
ID : 1
Format : AVC
Format/Info : Advanced Video Codec
Format profile : High@L4
Format settings, CABAC : Yes
Format settings, ReFrames : 4 frames
Codec ID : V_MPEG4/ISO/AVC
Duration : 1 h 49 min
Bit rate : 6 000 kb/s
Width : 1 920 pixels
Height : 1 080 pixels
Display aspect ratio : 16:9
Frame rate mode : Constant
Frame rate : 25.000 FPS
Color space : YUV
Chroma subsampling : 4:2:0
Bit depth : 8 bits
Scan type : Progressive
Bits/(Pixel*Frame) : 0.116
Stream size : 4.46 GiB (91%)
Title : League.of.Gods.2016.1080p.WEB-DL.x264.AC3
Writing library : x264()-core 129 – H.264/MPEG-4
Language : English
Default : Yes
Forced : No

Audio
ID : 2
Format : AC-3
Format/Info : Audio Coding 3
Mode extension : CM (complete main)
Format settings, Endianness : Big
Codec ID : A_AC3
Duration : 1 h 49 min
Bit rate mode : Constant
Bit rate : 448 kb/s
Channel(s) : 6 channels
Channel positions : Front: L C R, Side: L R, LFE
Sampling rate : 48.0 kHz
Frame rate : 31.250 FPS (1536 spf)
Compression mode : Lossy
Delay relative to video : 20 ms
Stream size : 350 MiB (7%)
Title : Thai DVD Master
Language : Thai
Default : Yes
Forced : Yes



หมายเหตุ ทุกเว็บโหลดแทนกันได้ แต่ต้องเปลี่ยนชื่อให้เรียงกันด้วย

สำหรับสมาชิก VIP เท่านั้น!

%d bloggers like this: