[MINI-HD 1080P] Jason Bourne (2016) เจสัน บอร์น ยอดจารชนคนอันตราย [พากย์ไทย 2.0 + อังกฤษ 5.1] [บรรยายไทย + อังกฤษ] [MKV] [FILEFENIX] [ONE2UP]

[MINI-HD 1080P] Jason Bourne (2016) เจสัน บอร์น ยอดจารชนคนอันตราย

แมตต์ เดม่อน (Matt Damon) กลับมาสวมบทเป็นสายลับ เจสัน บอนด์ ที่สามารถเรียกความทรงจำเก่า ๆ กลับคืนมาและกำลังจะบอกได้ว่าตัวเองเป็นใคร โดยเขาต้องหาคำตอบว่าสิ่งใดเป็นเรื่องจริงหรือโกหก ภายใต้เรื่องราวที่พูดถึงสงครามไซเบอร์ ไปจนถึงความตื่นตัวเรื่องการสอดส่องจากรัฐบาล

Jason.Bourne.2016.1080p.WEB-DL.x264.AC3[Load2up.com].mkv
Format : Matroska
Format version : Version 4 / Version 2
File size : 4.49 GiB
Duration : 2 h 3 min
Overall bit rate : 5 214 kb/s
Encoded date : UTC 2016-11-12 06:29:17
Writing application : mkvmerge v9.3.1 (‘Mask Machine’) 32bit
Writing library : libebml v1.3.4 + libmatroska v1.4.5

Video
ID : 1
Format : AVC
Format/Info : Advanced Video Codec
Format profile : High@L4
Format settings, CABAC : Yes
Format settings, ReFrames : 5 frames
Codec ID : V_MPEG4/ISO/AVC
Duration : 2 h 3 min
Bit rate : 4 585 kb/s
Width : 1 916 pixels
Height : 798 pixels
Display aspect ratio : 2.40:1
Frame rate mode : Constant
Frame rate : 23.976 (23976/1000) FPS
Color space : YUV
Chroma subsampling : 4:2:0
Bit depth : 8 bits
Scan type : Progressive
Bits/(Pixel*Frame) : 0.125
Stream size : 3.95 GiB (88%)
Language : English
Default : Yes
Forced : No
Color range : Limited
Color primaries : BT.709
Transfer characteristics : BT.709
Matrix coefficients : BT.709

Audio #1
ID : 2
Format : AC-3
Format/Info : Audio Coding 3
Mode extension : CM (complete main)
Format settings, Endianness : Big
Codec ID : A_AC3
Duration : 2 h 3 min
Bit rate mode : Constant
Bit rate : 224 kb/s
Channel(s) : 2 channels
Channel positions : Front: L R
Sampling rate : 48.0 kHz
Frame rate : 31.250 FPS (1536 spf)
Compression mode : Lossy
Stream size : 197 MiB (4%)
Title : Thai AC3 2.0 Ch @ 224 Kbps
Language : Thai
Default : Yes
Forced : No

Audio #2
ID : 3
Format : AC-3
Format/Info : Audio Coding 3
Mode extension : CM (complete main)
Format settings, Endianness : Big
Codec ID : A_AC3
Duration : 2 h 3 min
Bit rate mode : Constant
Bit rate : 384 kb/s
Channel(s) : 6 channels
Channel positions : Front: L C R, Side: L R, LFE
Sampling rate : 48.0 kHz
Frame rate : 31.250 FPS (1536 spf)
Compression mode : Lossy
Stream size : 338 MiB (7%)
Title : English AC3 5.1 Ch @ 384 Kbps
Language : English
Default : No
Forced : No

Text #1
ID : 4
Format : VobSub
Muxing mode : zlib
Codec ID : S_VOBSUB
Codec ID/Info : Picture based subtitle format used on DVDs
Duration : 1 h 53 min
Bit rate : 3 869 b/s
Count of elements : 1140
Stream size : 3.13 MiB (0%)
Title : Thai 1080p
Language : Thai
Default : No
Forced : No

Text #2
ID : 5
Format : VobSub
Muxing mode : zlib
Codec ID : S_VOBSUB
Codec ID/Info : Picture based subtitle format used on DVDs
Duration : 1 h 53 min
Bit rate : 1 300 b/s
Count of elements : 1140
Stream size : 1.05 MiB (0%)
Title : Thai 480p
Language : Thai
Default : No
Forced : No

Text #3
ID : 6
Format : PGS
Muxing mode : zlib
Codec ID : S_HDMV/PGS
Codec ID/Info : Picture based subtitle format used on BDs/HD-DVDs
Duration : 1 h 53 min
Bit rate : 14.1 kb/s
Count of elements : 2280
Stream size : 11.4 MiB (0%)
Title : Thai PGS
Language : Thai
Default : No
Forced : No

Text #4
ID : 7
Format : UTF-8
Codec ID : S_TEXT/UTF8
Codec ID/Info : UTF-8 Plain Text
Duration : 1 h 53 min
Bit rate : 106 b/s
Count of elements : 1141
Stream size : 88.5 KiB (0%)
Title : Thai SRT
Language : Thai
Default : No
Forced : No

Text #5
ID : 8
Format : UTF-8
Codec ID : S_TEXT/UTF8
Codec ID/Info : UTF-8 Plain Text
Duration : 1 h 53 min
Bit rate : 36 b/s
Count of elements : 1026
Stream size : 30.1 KiB (0%)
Title : English SRT
Language : English
Default : Yes
Forced : No



หมายเหตุ ทุกเว็บโหลดแทนกันได้ แต่ต้องเปลี่ยนชื่อให้เรียงกันด้วย


%d bloggers like this: