[MINI-HD 1080P HQ] Ghostbusters (2016) บริษัทกำจัดผี [พากย์ไทย 5.1 + เสียงอังกฤษ DTS] [บรรยายไทย + อังกฤษ] [MASTER] [MKV] [FILEFENIX] [ONE2UP]

[MINI-HD 1080P HQ] Ghostbusters (2016) บริษัทกำจัดผี

เรื่องราวของ อีริน กิลเบิร์ท (Erin Gilbert), แอบบี้ เยทส์ (Abby Yates) และ จิลเลี่ยม โฮลทซ์แมน (Jillian Holtzman) กลุ่มนักวิชาการสาวจากมหาวิทยาลัยโคลัมเบีย ผู้สนใจในสิ่งลี้ลับเหมือนกัน และได้รวมตัวกัน เพื่อใช้ความรู้ความสามารถ ผนวกเข้ากับการใช้เครื่องมือ และเทคโนโลยีทางวิทยาศาตร์ เข้าศึกษาปรากฏการณ์เหนือธรรมชาติต่างๆ จนกระทั่งได้ก่อตั้งเป็นบริษัทกำจัดผี ร่วมกับ แพตตี้ โทแลน (Patty Tolan) พนักงานสถานีรถไฟสาวร่างใหญ่ ผู้รู้ดีเกี่ยวกับนิวยอร์ก และ เควิน (Kevin) เลขาหนุ่มสุดหล่อคนเดียวของบริษัท และแล้วระหว่างที่พวกเธอกำลังปฏิบัติหน้าที่ตามล่าเหล่าผีร้ายอยู่นั้น พวกเธอก็พบว่ามีใครบางคนได้ทำเครื่องมือปลดปล่อยเหล่าผีร้ายให้ออกอาละวาดทั่วเมือง จนเกิดเป็นความวุ่นวายทั่วนิวยอร์ก ความหวังเดียวที่จะหยุดยั้งได้ จึงตกอยู่กับสาวๆ บริษัทกำจัดผีทั้ง 4 คน

{MINI Super-HQ}_Ghostbusters.2016.1080p.BrRip.DTS.x264[Load2up.com].mkv
Format : Matroska
Format version : Version 4 / Version 2
File size : 4.38 GiB
Duration : 1 h 54 min
Overall bit rate : 5 463 kb/s
Movie name : {MINI Super-HQ}_Ghostbusters.2016.1080p.BrRip.DTS.x264[Load2up.com] Encoded date : UTC 2010-02-22 21:41:31
Writing application : mkvmerge v5.9.0 (‘On The Loose’) built on Dec 9 2012 15:37:01
Writing library : libebml v1.3.0 + libmatroska v1.4.0

Video
ID : 1
Format : AVC
Format/Info : Advanced Video Codec
Format profile : High@L4
Format settings, CABAC : Yes
Format settings, ReFrames : 4 frames
Codec ID : V_MPEG4/ISO/AVC
Duration : 1 h 54 min
Bit rate : 3 960 kb/s
Width : 1 920 pixels
Height : 804 pixels
Display aspect ratio : 2.40:1
Frame rate mode : Constant
Frame rate : 23.976 FPS
Color space : YUV
Chroma subsampling : 4:2:0
Bit depth : 8 bits
Scan type : Progressive
Bits/(Pixel*Frame) : 0.107
Stream size : 3.17 GiB (72%)
Title : {MINI Super-HQ}_Ghostbusters.2016.1080p.BrRip.DTS.x264
Language : English
Default : Yes
Forced : No
Color range : Limited
Color primaries : BT.709
Transfer characteristics : BT.709
Matrix coefficients : BT.709

Audio #1
ID : 2
Format : AC-3
Format/Info : Audio Coding 3
Mode extension : CM (complete main)
Format settings, Endianness : Big
Codec ID : A_AC3
Duration : 1 h 54 min
Bit rate mode : Constant
Bit rate : 640 kb/s
Channel(s) : 6 channels
Channel positions : Front: L C R, Side: L R, LFE
Sampling rate : 48.0 kHz
Frame rate : 31.250 FPS (1536 spf)
Compression mode : Lossy
Delay relative to video : 7 ms
Stream size : 525 MiB (12%)
Title : Thai BluRay Master
Language : Thai
Default : Yes
Forced : Yes

Audio #2
ID : 3
Format : DTS
Format/Info : Digital Theater Systems
Mode : 16
Format settings, Endianness : Big
Codec ID : A_DTS
Duration : 1 h 54 min
Bit rate mode : Constant
Bit rate : 755 kb/s
Channel(s) : 6 channels
Channel positions : Front: L C R, Side: L R, LFE
Sampling rate : 48.0 kHz
Frame rate : 93.750 FPS (512 spf)
Bit depth : 24 bits
Compression mode : Lossy
Delay relative to video : 7 ms
Stream size : 619 MiB (14%)
Title : English DTS
Language : English
Default : No
Forced : No

Text #1
ID : 4
Format : VobSub
Codec ID : S_VOBSUB
Codec ID/Info : Picture based subtitle format used on DVDs
Title : Thai 480p
Language : Thai
Default : No
Forced : No

Text #2
ID : 5
Format : VobSub
Codec ID : S_VOBSUB
Codec ID/Info : Picture based subtitle format used on DVDs
Title : Thai 720p
Language : Thai
Default : No
Forced : No

Text #3
ID : 6
Format : VobSub
Codec ID : S_VOBSUB
Codec ID/Info : Picture based subtitle format used on DVDs
Title : Thai 1080p
Language : Thai
Default : Yes
Forced : Yes

Text #4
ID : 7
Format : VobSub
Codec ID : S_VOBSUB
Codec ID/Info : Picture based subtitle format used on DVDs
Title : Thai 1080p Yellow
Language : Thai
Default : No
Forced : No

Text #5
ID : 8
Format : VobSub
Codec ID : S_VOBSUB
Codec ID/Info : Picture based subtitle format used on DVDs
Title : Thai 1080p Out
Language : Thai
Default : No
Forced : No

Text #6
ID : 9
Format : VobSub
Codec ID : S_VOBSUB
Codec ID/Info : Picture based subtitle format used on DVDs
Title : Thai 1080p BIG
Language : Thai
Default : No
Forced : No

Text #7
ID : 10
Format : VobSub
Codec ID : S_VOBSUB
Codec ID/Info : Picture based subtitle format used on DVDs
Title : Thai 1080p Out [BIG] Language : Thai
Default : No
Forced : No

Text #8
ID : 11
Format : PGS
Codec ID : S_HDMV/PGS
Codec ID/Info : Picture based subtitle format used on BDs/HD-DVDs
Title : Thai PGS BluRay Master
Language : Thai
Default : No
Forced : No

Text #9
ID : 12
Format : PGS
Codec ID : S_HDMV/PGS
Codec ID/Info : Picture based subtitle format used on BDs/HD-DVDs
Title : Thai PGS Out
Language : Thai
Default : No
Forced : No

Text #10
ID : 13
Format : VobSub
Codec ID : S_VOBSUB
Codec ID/Info : Picture based subtitle format used on DVDs
Title : English
Language : English
Default : No
Forced : No



หมายเหตุ ทุกเว็บโหลดแทนกันได้ แต่ต้องเปลี่ยนชื่อให้เรียงกันด้วย




สำหรับสมาชิก VIP เท่านั้น!

%d bloggers like this: