[MINI-HD 1080P] Crimson Peak (2015) ปราสาทสีเลือด [พากย์ไทย+อังกฤษ] [SubThai+Eng] [MASTER] [MKV] [FILEFENIX] [ONE2UP]

[MINI-HD 1080P] Crimson Peak (2015) ปราสาทสีเลือด

เมื่อหัวใจถูกขโมยไปโดยชายแปลกหน้าเจ้าเสน่ห์ หญิงสาวคนหนึ่งถูกพาตัวไปยังบ้านซึ่งตั้งอยู่บนยอดเขาดินสีเลือด สถานที่ที่เต็มไปด้วยความลับ ซึ่งจะตามหลอกหลอนเธอไปตลอดกาล ระหว่างความปรารถนาและความมืดมิด ระหว่างความลึกลับและความบ้าคลั่ง กลับซุ่มซ่อนความจริงที่อยู่เบื้องหลัง Crimson Peak จากจินตนาการของผู้กำกับ กิลเลอร์โม่ เดอ โทโร่ กลั่นออกมาเป็นเรื่องราวความรักแนวโกธิคที่นำแสดงโดย มีอา วาซิโควสก้า (Alice in Wonderland, Jane Eyre), นักแสดงหญิงผู้ได้รับการเสนอชื่อเข้าชิงรางวัลออสการ์มาแล้วถึงสองครั้งอย่าง เจสสิก้า แชสเทน (Zero Dark Thirty, Mama), ทอม ฮิดเดิลสตัน (The Avengers, ภาพยนตร์ชุด Thor) และชาร์ลี ฮันนั่ม (Pacific Rim, ผลงานของเอฟเอ็กซ์เรื่อง Sons of Anarchy) ใน Crimson Peak พวกเขาจะได้ค้นพบพลังความรักที่ทำให้เราทุกคนกลายเป็นสัตว์ร้าย ในฐานะมือเขียนบทและผู้กำกับภาพยนตร์ยุคใหม่ที่กลายเป็นภาพยนตร์คลาสสิกไปแล้วอย่าง The Devil’s Backbone และ Pan’s Labyrinth และผู้อำนวยการสร้างภาพยนตร์ทริลเลอร์สยองขวัญอย่าง The Orphanage และ Mama เดล โทโร่ได้สร้างสรรค์ผลงานที่เป็นการผสมผสานความสยดสยองทางจิตและความงดงามของภาพยนตร์ที่ขับเคลื่อนความสยองขวัญเข้าสู่โลกของเทพนิยายแนวสยอง

{MINI Super-HQ}_Crimson.Peak.2015.1080p.BrRip.DTS.x264[Load2up.com].mkv
Format : Matroska
Format version : Version 4 / Version 2
File size : 3.85 GiB
Duration : 1 h 58 min
Overall bit rate : 4 637 kb/s
Movie name : {MINI Super-HQ}_Crimson.Peak.2015.1080p.BrRip.DTS.x264
Encoded date : UTC 2010-02-22 21:41:31
Writing application : mkvmerge v5.9.0 (‘On The Loose’) built on Dec 9 2012 15:37:01
Writing library : libebml v1.3.0 + libmatroska v1.4.0

Video
ID : 1
Format : AVC
Format/Info : Advanced Video Codec
Format profile : [email protected]
Format settings, CABAC : Yes
Format settings, ReFrames : 4 frames
Codec ID : V_MPEG4/ISO/AVC
Duration : 1 h 58 min
Bit rate : 3 404 kb/s
Width : 1 920 pixels
Height : 1 036 pixels
Display aspect ratio : 1.85:1
Frame rate mode : Constant
Frame rate : 23.976 (24000/1001) FPS
Color space : YUV
Chroma subsampling : 4:2:0
Bit depth : 8 bits
Scan type : Progressive
Bits/(Pixel*Frame) : 0.071
Stream size : 2.82 GiB (73%)
Title : {MINI Super-HQ}_Crimson.Peak.2015.1080p.BrRip.DTS.x264
Writing library : x264 core 130 r2273 b3065e6
Language : English
Default : Yes
Forced : No
Color range : Limited
Color primaries : BT.709
Transfer characteristics : BT.709
Matrix coefficients : BT.709

Audio #1
ID : 2
Format : AC-3
Format/Info : Audio Coding 3
Mode extension : CM (complete main)
Format settings, Endianness : Big
Codec ID : A_AC3
Duration : 1 h 58 min
Bit rate mode : Constant
Bit rate : 384 kb/s
Channel(s) : 6 channels
Channel positions : Front: L C R, Side: L R, LFE
Sampling rate : 48.0 kHz
Frame rate : 31.250 FPS (1536 spf)
Compression mode : Lossy
Stream size : 326 MiB (8%)
Title : Thai DVD Master
Language : Thai
Default : Yes
Forced : Yes

Audio #2
ID : 3
Format : DTS
Format/Info : Digital Theater Systems
Mode : 16
Format settings, Endianness : Big
Codec ID : A_DTS
Duration : 1 h 58 min
Bit rate mode : Constant
Bit rate : 755 kb/s
Channel(s) : 6 channels
Channel positions : Front: L C R, Side: L R, LFE
Sampling rate : 48.0 kHz
Frame rate : 93.750 FPS (512 spf)
Bit depth : 24 bits
Compression mode : Lossy
Stream size : 641 MiB (16%)
Title : English DTS
Language : English
Default : No
Forced : No

Text #1
ID : 4
Format : VobSub
Codec ID : S_VOBSUB
Codec ID/Info : Picture based subtitle format used on DVDs
Title : Thai 480p
Language : Thai
Default : No
Forced : No

Text #2
ID : 5
Format : VobSub
Codec ID : S_VOBSUB
Codec ID/Info : Picture based subtitle format used on DVDs
Title : Thai 720p
Language : Thai
Default : No
Forced : No

Text #3
ID : 6
Format : VobSub
Codec ID : S_VOBSUB
Codec ID/Info : Picture based subtitle format used on DVDs
Title : Thai 1080p
Language : Thai
Default : Yes
Forced : Yes

Text #4
ID : 7
Format : VobSub
Codec ID : S_VOBSUB
Codec ID/Info : Picture based subtitle format used on DVDs
Title : Thai 1080p Yellow
Language : Thai
Default : No
Forced : No

Text #5
ID : 8
Format : VobSub
Codec ID : S_VOBSUB
Codec ID/Info : Picture based subtitle format used on DVDs
Title : Thai 1080p BIG
Language : Thai
Default : No
Forced : No

Text #6
ID : 9
Format : PGS
Codec ID : S_HDMV/PGS
Codec ID/Info : Picture based subtitle format used on BDs/HD-DVDs
Title : Thai PGS
Language : Thai
Default : No
Forced : No

Text #7
ID : 10
Format : PGS
Codec ID : S_HDMV/PGS
Codec ID/Info : Picture based subtitle format used on BDs/HD-DVDs
Title : Thai PGS Yellow
Language : Thai
Default : No
Forced : No

Text #8
ID : 11
Format : VobSub
Codec ID : S_VOBSUB
Codec ID/Info : Picture based subtitle format used on DVDs
Title : English
Language : English
Default : No
Forced : No



หมายเหตุ ทุกเว็บโหลดแทนกันได้ แต่ต้องเปลี่ยนชื่อให้เรียงกันด้วย


%d bloggers like this: