[MINI-HD 1080P] Assassins Creed (2016) [KORSUB] [เสียงไทยโรง] [SubEng] [MKV] [ONE2UP]

[MINI-HD 1080P] Assassins Creed (2016)

คัลลัม ลินช์ (Callum Lynch)” ชายหนุ่ม ผู้สืบเชื้อสายมาจาก “อกีลาร์ (Aguilar)” สมาชิกองค์กรนักฆ่าในศตวรรษที่ 15 ของสเปน ผู้ที่จะมาถูกปลุกความสามารถที่หลับไหลภายในยีนของเขาให้ตื่นขึ้นมา ด้วยเทคโนโลยีสุดล้ำจากองค์กรลับ พร้อมกับความทรงจำและความสามารถของนักฆ่าอกีลาร์ เพื่อนำมาใช้ในการต่อกรกับอำนาจชั่วร้ายขององค์กรอัศวินเทมปลาร์ (Knights Templar) ในยุคปัจจุบัน

Assassins.Creed.2016.1080p.KORSUB.HDRip.x264.ThaiRong.AC3.Sub-Eng[Load2up.com].mkv
Format : Matroska
Format version : Version 4 / Version 2
File size : 3.61 GiB
Duration : 1 h 54 min
Overall bit rate : 4 497 kb/s
Encoded date : UTC 2017-02-20 01:49:21
Writing application : mkvmerge v8.5.1
Writing library : libebml v1.3.3 + libmatroska v1.4.4

Video
ID : 1
Format : AVC
Format/Info : Advanced Video Codec
Format profile : Baseline@L4
Format settings, CABAC : No
Format settings, ReFrames : 1 frame
Codec ID : V_MPEG4/ISO/AVC
Duration : 1 h 54 min
Bit rate : 4 000 kb/s
Width : 1 920 pixels
Height : 1 080 pixels
Display aspect ratio : 16:9
Frame rate mode : Constant
Frame rate : 29.860 FPS
Color space : YUV
Chroma subsampling : 4:2:0
Bit depth : 8 bits
Scan type : Progressive
Bits/(Pixel*Frame) : 0.065
Stream size : 3.27 GiB (91%)
Default : Yes
Forced : No

Audio #1
ID : 2
Format : AC-3
Format/Info : Audio Coding 3
Mode extension : CM (complete main)
Format settings, Endianness : Big
Codec ID : A_AC3
Duration : 1 h 54 min
Bit rate mode : Constant
Bit rate : 192 kb/s
Channel(s) : 2 channels
Channel positions : Front: L R
Sampling rate : 48.0 kHz
Frame rate : 31.250 FPS (1536 spf)
Bit depth : 16 bits
Compression mode : Lossy
Delay relative to video : -46 ms
Stream size : 158 MiB (4%)
Language : Thai
Default : Yes
Forced : No

Audio #2
ID : 3
Format : AAC
Format/Info : Advanced Audio Codec
Format profile : LC
Codec ID : A_AAC
Duration : 1 h 54 min
Bit rate : 224 kb/s
Channel(s) : 2 channels
Channel positions : Front: L R
Sampling rate : 44.1 kHz
Frame rate : 43.066 FPS (1024 spf)
Compression mode : Lossy
Delay relative to video : -46 ms
Stream size : 184 MiB (5%)
Language : English
Default : No
Forced : No

Text
ID : 4
Format : UTF-8
Codec ID : S_TEXT/UTF8
Codec ID/Info : UTF-8 Plain Text
Duration : 1 h 39 min
Bit rate : 25 b/s
Count of elements : 626
Stream size : 18.3 KiB (0%)
Language : English
Default : Yes
Forced : No



หมายเหตุ ทุกเว็บโหลดแทนกันได้ แต่ต้องเปลี่ยนชื่อให้เรียงกันด้วย

%d bloggers like this: