Home > หนัง Zoom > Star Wars: Episode VIII – The Last Jedi (2017) สตาร์ วอร์ส: ปัจฉิมบทแห่งเจได [720P] [พากย์ไทยโรง 2.0 + เสียงอังกฤษ 2.0] [MKV] [ONE2UP]

Star Wars: Episode VIII – The Last Jedi (2017) สตาร์ วอร์ส: ปัจฉิมบทแห่งเจได [720P] [พากย์ไทยโรง 2.0 + เสียงอังกฤษ 2.0] [MKV] [ONE2UP]

Star Wars: Episode VIII – The Last Jedi (2017) สตาร์ วอร์ส: ปัจฉิมบทแห่งเจได

Star.Wars.The.Last.Jedi.2017.720p.HDTC.x264.AC-3.THR2.0[Load2up.com].mkv
Format : Matroska
Format version : Version 4 / Version 2
File size : 1.89 GiB
Duration : 2 h 24 min
Overall bit rate mode : Variable
Overall bit rate : 1 881 kb/s
Movie name : Star.Wars.The.Last.Jedi.2017.720p.HDTC.x264.AC-3.THR2.0_
Encoded date : UTC 2018-01-06 20:01:50
Writing application : mkvmerge v9.9.0 (‘Pick Up’) 64bit
Writing library : libebml v1.3.4 + libmatroska v1.4.5
Cover : Yes
Attachments : cover.jpg

Video
ID : 1
Format : AVC
Format/Info : Advanced Video Codec
Format profile : [email protected]
Format settings, CABAC : Yes
Format settings, ReFrames : 6 frames
Codec ID : V_MPEG4/ISO/AVC
Duration : 2 h 24 min
Bit rate mode : Variable
Bit rate : 1 500 kb/s
Maximum bit rate : 62.5 Mb/s
Width : 1 264 pixels
Height : 584 pixels
Display aspect ratio : 2.2:1
Frame rate mode : Constant
Frame rate : 23.976 (24000/1001) FPS
Color space : YUV
Chroma subsampling : 4:2:0
Bit depth : 8 bits
Scan type : Progressive
Bits/(Pixel*Frame) : 0.085
Stream size : 1.50 GiB (79%)
Title : Star.Wars.The.Last.Jedi.2017.720p.HDTC.x264.AC-3.THR2.0
Writing library : x264 core 148 r2638 7599210
Language : Chinese
Default : Yes
Forced : No
Color range : Limited
Color primaries : BT.709
Transfer characteristics : BT.709
Matrix coefficients : BT.709

Audio #1
ID : 2
Format : AC-3
Format/Info : Audio Coding 3
Format settings, Endianness : Big
Codec ID : A_AC3
Duration : 2 h 24 min
Bit rate mode : Constant
Bit rate : 192 kb/s
Channel(s) : 2 channels
Channel positions : Front: L R
Sampling rate : 48.0 kHz
Frame rate : 31.250 FPS (1536 spf)
Bit depth : 16 bits
Compression mode : Lossy
Delay relative to video : -21 ms
Stream size : 198 MiB (10%)
Title : THR 2.0 AC-3 Modified By ~Mr.Captain~
Language : Thai
Service kind : Complete Main
Default : Yes
Forced : No

Audio #2
ID : 3
Format : AAC
Format/Info : Advanced Audio Codec
Format profile : LC
Codec ID : A_AAC
Duration : 2 h 24 min
Bit rate : 192 kb/s
Channel(s) : 2 channels
Channel positions : Front: L R
Sampling rate : 48.0 kHz
Frame rate : 46.875 FPS (1024 spf)
Compression mode : Lossy
Delay relative to video : -21 ms
Stream size : 198 MiB (10%)
Title : English 2.0 AAC
Language : English
Default : No
Forced : No



หมายเหตุ ทุกเว็บโหลดแทนกันได้ แต่ต้องเปลี่ยนชื่อให้เรียงกันด้วย

สำหรับสมาชิก VIP เท่านั้น!

[restrict …]

|——————————————————————|

|——————————————————————|

[/restrict]