Home > Mini-HD > [MINI-HD 720P] SEOUL STATION (2016) ก่อนนรกซอมบี้คลั่ง [พากย์ไทยโรง] [MKV] [FILEFENIX] [ONE2UP]

[MINI-HD 720P] SEOUL STATION (2016) ก่อนนรกซอมบี้คลั่ง [พากย์ไทยโรง] [MKV] [FILEFENIX] [ONE2UP]

[MINI-HD 720P] SEOUL STATION (2016) ก่อนนรกซอมบี้คลั่ง

Seoul Station (2016) ก่อนนรกซอมบี้คลั่ง ซุกคิว ชายผู้พยายามตามหา ฮเยซัน ลูกสาวที่หายตัวไปหลังจากหนีออกจากบ้าน ก่อนจะพบว่าเธอทำงานเป็นหญิงขายบริการอยู่ในกรุงโซล แต่แล้วได้เกิดเหตุการณ์วุ่นวายขึ้นฉับพลัน ณ สถานนีรถไฟโซล เมื่อไวรัสปริศนาได้แพร่ระบาด และเปลี่ยนผู้คนให้กลายเป็นซอมบี้คลั่งออกอาระวาดไปทั่วทุกแห่ง จนเพิ่มจำนวนผู้ติดเชื้อเป็นทวีคูณและเข้าโจมตีผู้คนอย่างไม่เลือกหน้า ขณะที่รัฐบาลได้ทำการปิดเมือง ให้กลายเป็นเขตกักกัน เพื่อป้องกันการแพร่ระบาดไม่ให้ลุกลาม ดังนั้น ซุกคิว, ฮเยซัน และแฟนหนุ่ม ผู้เห็นแก่ตัวของเธอ จึงต้องหาทางเอาชีวิตรอดและหนีตายจากเมืองทั้งเมืองที่เต็มไปด้วยฝูงซอมบี้ และนำไปสู่จุดเริ่มต้นของสถานการณ์ระทึกใน Train to Busan ต่อไป…

General : Seoul.Station.2016.720p.WEBRip.H264.THR[Load2up.com].mkv
Format : Matroska
Format version : Version 4 / Version 2
File size : 2.27 GiB
Duration : 1 h 32 min
Overall bit rate : 3 520 kb/s
Movie name : Seoul.Station.2016.720p.WEBRip.H264 [THR] Encoded date : UTC 2010-02-22 21:41:31
Writing application : mkvmerge v5.9.0 (‘On The Loose’) built on Dec 9 2012 15:37:01
Writing library : libebml v1.3.0 + libmatroska v1.4.0

Video
ID : 1
Format : AVC
Format/Info : Advanced Video Codec
Format profile : [email protected]
Format settings, CABAC : No
Format settings, ReFrames : 1 frame
Codec ID : V_MPEG4/ISO/AVC
Duration : 1 h 32 min
Bit rate : 3 226 kb/s
Width : 1 280 pixels
Height : 720 pixels
Display aspect ratio : 16:9
Frame rate mode : Constant
Frame rate : 24.000 FPS
Color space : YUV
Chroma subsampling : 4:2:0
Bit depth : 8 bits
Scan type : Progressive
Bits/(Pixel*Frame) : 0.146
Stream size : 2.08 GiB (92%)
Language : Korean
Default : Yes
Forced : No

Audio
ID : 2
Format : AC-3
Format/Info : Audio Coding 3
Mode extension : CM (complete main)
Format settings, Endianness : Big
Codec ID : A_AC3
Duration : 1 h 32 min
Bit rate mode : Constant
Bit rate : 224 kb/s
Channel(s) : 2 channels
Channel positions : Front: L R
Sampling rate : 48.0 kHz
Frame rate : 31.250 FPS (1536 spf)
Compression mode : Lossy
Stream size : 148 MiB (6%)
Language : Thai
Default : Yes
Forced : No



หมายเหตุ ทุกเว็บโหลดแทนกันได้ แต่ต้องเปลี่ยนชื่อให้เรียงกันด้วย