Home > Mini-HD > [MINI-HD 720P] O.T. ผี Overtime (2014) [พากย์ไทย] [MASTER] [MKV] [FILEFENIX] [ONE2UP]

[MINI-HD 720P] O.T. ผี Overtime (2014) [พากย์ไทย] [MASTER] [MKV] [FILEFENIX] [ONE2UP]

[MINI-HD 720P] O.T. ผี Overtime (2014)

ด้วยกระแสตอบรับอันดีจากภาพยนตร์ ตีสาม ที่ได้รับจากทั่วโลก โดยเฉพาะตอน O.T. ที่ทำให้ผู้ชมร่วมลุ้นไปกับตัวละคร และเป็นที่กล่าวขวัญถึงสไตล์การหักมุมอย่างเหนือชั้น เกินคาดเดาว่าจะเกิดอะไรขึ้น ทำให้ ไฟว์สตาร์ฯ หยิบเอาตอน O.T มาทำเป็นภาพยนตร์ยาวเต็มรูปแบบ ซึ่งยังคงเอกลักษณ์ภาพยนตร์ระทึกขวัญ มีสไตล์การหักมุมแบบเหนือชั้น ที่จะทำให้ยากต่อการคาดเดาเรื่องราว

O.T. ผี Overtime เป็นเรื่องราวหลังจากที่ การัน (ชาคริต แย้มนาม) และที (เร แมคโดแนลด์) โดนผีหลอกใน ตีสาม แม้พวกเขาจะรอดมาได้ แต่ก็มาพร้อมกับอาการประสาทหลอนไม่สามารถขึ้นลงลิฟต์ได้ พารานอยด์ตลอดเวลาต้องคอยเช็กคนรอบข้างว่าเป็นผีหรือคน แต่ยังไม่วายรวมหัวกันแกล้งพนักงานในออฟฟิศอยู่เช่นเดิม โดยมี บดินทร์ (อนันดา เอเวอร์ริ่งแฮม) หนึ่งในหุ้นส่วน ร่วม ก๊วนแกล้งลูกน้องที่ชอบอู้ ในเวลางานแล้วค่อยมาปั่นทำงาน ตอนช่วงเย็นเพื่อหวังได้ “โอที”

ซึ่งครั้งนี้นอกจากจะได้ 2 หนุ่มเพื่อนรัก ชาคริต-เร กลับมารับบท 2 บอสขี้แกล้งแล้ว ยังได้ อนันดา เอเวอริงแฮม มารับบท บดินทร์ หุ้นส่วนอีกคนที่กลับมากู้วิกฤตของบริษัททำให้เผชิญหน้ากับสิ่งที่คาดไม่ถึง พร้อมด้วยพนักงานบริษัทผู้ร่วมชะตากรรมอย่าง เตยหอม กันยรินทร์ นิธินพรัศม์, ฝน นลินทิพย์ เพิ่มภัทรสกุล, กัน อรรถพันธ์ พูลสวัสดิ์, แม็กกี้ ศุทธสิทธิ์ พจน์ฐศักดิ์, แพ็ตตี้ เพตี้อิ โฮการิ, ส้วม สุขพัฒน์ โล่ห์วัชรินทร์, มิลาน เกตุสุวรรณ และพระเอกหนุ่มหน้าใส อัค อัครัฐ นิมิตรชัย และนางเอกสาวตาโตน้องใหม่ ตูน พิมพ์ปวีณ์ โคกระบินทร์ ดูหนัง OT ผี Overtime hd

เตรียมพบกับประสบการณ์การหลอกผีครั้งใหม่ที่ อัพเกรดความแรงมากขึ้น ซับซ้อนมากกว่าเดิม ที่เราบอกได้คำเดียวว่าไม่อาจคาดเดาได้ ใน O.T. ผี Overtime ระวังให้ดีจะเจอผี… หรือจะเจอแผน

O.T.Ghost.Overtime.2014.720p.BluRay[Load2up.com].mkv
Format : Matroska
Format version : Version 4 / Version 2
File size : 4.00 GiB
Duration : 1 h 42 min
Overall bit rate : 5 566 kb/s
Encoded date : UTC 2010-02-22 21:41:31
Writing application : mkvmerge v5.9.0 (‘On The Loose’) built on Dec 9 2012 15:37:01
Writing library : libebml v1.3.0 + libmatroska v1.4.0

Video
ID : 1
Format : AVC
Format/Info : Advanced Video Codec
Format profile : [email protected]
Format settings, CABAC : Yes
Format settings, ReFrames : 9 frames
Codec ID : V_MPEG4/ISO/AVC
Duration : 1 h 42 min
Bit rate : 4 926 kb/s
Width : 1 280 pixels
Height : 692 pixels
Display aspect ratio : 1.85:1
Frame rate mode : Constant
Frame rate : 24.000 FPS
Color space : YUV
Chroma subsampling : 4:2:0
Bit depth : 8 bits
Scan type : Progressive
Bits/(Pixel*Frame) : 0.232
Stream size : 3.46 GiB (87%)
Writing library : x264 core 129 r2245+704+36 8e61944 tMod+MixAQ [[email protected]:2:0 X86_64] Language : Thai
Default : Yes
Forced : No

Audio
ID : 2
Format : AC-3
Format/Info : Audio Coding 3
Mode extension : CM (complete main)
Format settings, Endianness : Big
Codec ID : A_AC3
Duration : 1 h 42 min
Bit rate mode : Constant
Bit rate : 640 kb/s
Channel(s) : 6 channels
Channel positions : Front: L C R, Side: L R, LFE
Sampling rate : 48.0 kHz
Frame rate : 31.250 FPS (1536 spf)
Compression mode : Lossy
Stream size : 471 MiB (11%)
Language : Thai
Default : Yes
Forced : No



หมายเหตุ ทุกเว็บโหลดแทนกันได้ แต่ต้องเปลี่ยนชื่อให้เรียงกันด้วย


(Visited 1,585 times, 1 visits today)