Home > Master > [MINI-HD 1080P HQ] THE SECRET LIFE OF PETS (2016) เรื่องลับแก๊งขนฟู [พากย์ไทย 5.1 + ENG DTS] [บรรยายไทย + อังกฤษ] [MASTER] [MKV] [FILEFENIX] [ONE2UP]

[MINI-HD 1080P HQ] THE SECRET LIFE OF PETS (2016) เรื่องลับแก๊งขนฟู [พากย์ไทย 5.1 + ENG DTS] [บรรยายไทย + อังกฤษ] [MASTER] [MKV] [FILEFENIX] [ONE2UP]

[MINI-HD 1080P HQ] THE SECRET LIFE OF PETS (2016) เรื่องลับแก๊งขนฟู

ณ ใจกลางนครแมนฮัตตัน แม็กซ์ สุนัขเทอร์เรียร์ผู้ได้รับการพะเน้าพะนอเอาใจเป็นอย่ างดี มีความสัมพันธ์แสนสุขกับเคที เจ้าของผู้เก็บเขามาเลี้ยง จนกระทั่ง เคที สาวน้อยใจดี ได้รับ ดุ๊ค สุนัขพันธุ์ทางตัวใหญ่ขนปุกปุย มาเลี้ยงอีกตัว แม็กซ์ถึงกับอึ้งเมื่อเคทีบอกเขาว่า ดุ๊คเป็นน้องชายตัวใหม่ของเขา โดยเฉพาะอย่างยิ่ง เมื่อดุ๊คถือโอกาสครอบครองของเล่นและเตียงของแม็กซ์ และทึกทักเอาเองว่าเขาและพี่ชายตัวใหม่ของเขาจะใช้ชี วิตที่แสนสุขสบายนี้ด้วยกัน ขณะที่แม็กซ์ ผู้ขาดความเชื่อมั่น พยายามจะยึดอาณาเขตของตัวเองเอาไว้อย่างเหนียวแน่น ดุ๊ค ผู้จริงๆ แล้วเป็นสุนัขน่ารักที่เจอกับช่วงเวลาเลวร้าย กลับไม่เข้าใจท่าทีแข็งกร้วาของแม็กซ์และรู้สึกกังวล ว่าแม็กซ์พยายามจะกำจัดเขา สิ่งหนึ่งที่ดุ๊ครู้คือเขาไม่สามารถกลับไปยังสถานสงเ คราะห์สัตว์ที่เขาแทบเอาชีวิตไม่รอดได้อีกแล้ว ความขัดแย้งระหว่างทั้งคู่รุนแรงไปสู่ท้องถน และท้ายที่สุด มันก็ทำให้ทั้งคู่ถูกขังอยู่ในรถตู้ควบคุมสัตว์เพื่อ มุ่งตรงไปยังสถานสงเคราะห์สัตว์แต่เมื่อกระต่ายน่ารักสติแตกที่ชื่อสโนว์บอล ผู้นำของแก๊งอดีตสัตว์เลี้ยงผู้ถูกเจ้าของทอดทิ้ง ผู้เรียกตัวเองว่า สัตว์เลี้ยงถูกทิ้ง ได้บุกเข้ามาในรถตู้เพื่อช่วยเหลือเพื่อนร่วมแก๊งตัว หนึ่งของพวกเขา แม็กซ์และดุ๊คก็มองเห็นโอกาสและได้เจรจาต่อรองเพื่อใ ห้ได้รับอิสรภาพ เพื่อเป็นการแลกเปลี่ยน สโนว์บอลเรียกร้องให้พวกเขาเข้าร่วมกองทัพสัตว์เลี้ยงถูกทิ้งและใช้ชีวิตอยู่กับพวกเขาในรังลับในท่อระบาย น้ำ เพื่อวางแผนการแก้แค้นเหล่ามนุษย์ที่ทอดทิ้งพวกเขาเมื่อสโนว์บอลรู้ว่าแม็กซ์และดุ๊คมีเจ้าของที่พวกเขา รักและใช้ชีวิตอย่างสุขสบาย เขาก็ปล่อยลูกสมุนของเขาให้ไล่ล่าพวกเขาไปทั่วทั้งนิ วยอร์ก ซิตี้ เมื่อถูกบีบให้ต้องดึงเอาสัญชาตญาณดิบออกมาใช้เพื่อความอยู่รอดสองพี่น้องที่เคยไม่ลงรอยกันก็ต้องบุกตะลุยป่าคอนกรีต เพื่อกลับไปถึงบ้านอย่างปลอดภัย…ก่อนที่เคทีจะกลับบ้าน

The.Secret.Life.of.Pets.2016.1080p.SuperHQ.AC3.x264.BD[Load2up.com].mkv
Format : Matroska
Format version : Version 4 / Version 2
File size : 3.94 GiB
Duration : 1 h 26 min
Overall bit rate : 6 528 kb/s
Movie name : The.Secret.Life.of.Pets.2016.1080p.SuperHQ.AC3.x264.BD[Load2up.com] Encoded date : UTC 2016-11-09 16:27:14
Writing application : mkvmerge v9.5.0 (‘Quiet Fire’) 32bit
Writing library : libebml v1.3.4 + libmatroska v1.4.5

Video
ID : 1
Format : AVC
Format/Info : Advanced Video Codec
Format profile : [email protected]
Format settings, CABAC : Yes
Format settings, ReFrames : 4 frames
Codec ID : V_MPEG4/ISO/AVC
Duration : 1 h 26 min
Bit rate : 5 163 kb/s
Width : 1 920 pixels
Height : 1 040 pixels
Display aspect ratio : 1.85:1
Frame rate mode : Constant
Frame rate : 23.976 FPS
Color space : YUV
Chroma subsampling : 4:2:0
Bit depth : 8 bits
Scan type : Progressive
Bits/(Pixel*Frame) : 0.108
Stream size : 3.09 GiB (78%)
Title : The.Secret.Life.of.Pets.2016.1080p.SuperHQ.AC3.x264.BD
Writing library : x264 core 130 r2273 b3065e6
Language : English
Default : Yes
Forced : Yes

Audio #1
ID : 2
Format : AC-3
Format/Info : Audio Coding 3
Mode extension : CM (complete main)
Format settings, Endianness : Big
Codec ID : A_AC3
Duration : 1 h 26 min
Bit rate mode : Constant
Bit rate : 640 kb/s
Channel(s) : 6 channels
Channel positions : Front: L C R, Side: L R, LFE
Sampling rate : 48.0 kHz
Frame rate : 31.250 FPS (1536 spf)
Compression mode : Lossy
Stream size : 396 MiB (10%)
Title : TH AC3 BD MASTER
Language : Thai
Default : Yes
Forced : Yes

Audio #2
ID : 3
Format : AC-3
Format/Info : Audio Coding 3
Mode extension : CM (complete main)
Format settings, Endianness : Big
Codec ID : A_AC3
Duration : 1 h 26 min
Bit rate mode : Constant
Bit rate : 640 kb/s
Channel(s) : 6 channels
Channel positions : Front: L C R, Side: L R, LFE
Sampling rate : 48.0 kHz
Frame rate : 31.250 FPS (1536 spf)
Compression mode : Lossy
Stream size : 396 MiB (10%)
Title : EN AC3 BD MASTER
Language : English
Default : No
Forced : No

Text #1
ID : 4
Format : VobSub
Codec ID : S_VOBSUB
Codec ID/Info : Picture based subtitle format used on DVDs
Title : TH 1080P BD MASTER
Language : Thai
Default : No
Forced : No

Text #2
ID : 5
Format : VobSub
Codec ID : S_VOBSUB
Codec ID/Info : Picture based subtitle format used on DVDs
Title : TH 1080P YELLOW
Language : Thai
Default : No
Forced : No

Text #3
ID : 6
Format : VobSub
Codec ID : S_VOBSUB
Codec ID/Info : Picture based subtitle format used on DVDs
Title : TH 480P
Language : Thai
Default : No
Forced : No

Text #4
ID : 7
Format : UTF-8
Codec ID : S_TEXT/UTF8
Codec ID/Info : UTF-8 Plain Text
Title : TH SRT ITUNES MASTER
Language : Thai
Default : No
Forced : No

Text #5
ID : 8
Format : PGS
Codec ID : S_HDMV/PGS
Codec ID/Info : Picture based subtitle format used on BDs/HD-DVDs
Title : TH BD MASTER
Language : Thai
Default : Yes
Forced : Yes

Text #6
ID : 9
Format : PGS
Codec ID : S_HDMV/PGS
Codec ID/Info : Picture based subtitle format used on BDs/HD-DVDs
Title : EN BD
Language : English
Default : No
Forced : No



หมายเหตุ ทุกเว็บโหลดแทนกันได้ แต่ต้องเปลี่ยนชื่อให้เรียงกันด้วย


สำหรับสมาชิก VIP เท่านั้น!

[restrict …]

|——————————————————————|

|——————————————————————|

[/restrict]