Home > Master > [MINI-HD 1080P HQ] That Awkward Moment (2014) หนึ่ง ส่อง ซั่ม เอาวะ เลิกโสด [พากย์ไทย+อังกฤษ] [SubThai+Eng] [MASTER] [MKV] [FILEFENIX] [ONE2UP]

[MINI-HD 1080P HQ] That Awkward Moment (2014) หนึ่ง ส่อง ซั่ม เอาวะ เลิกโสด [พากย์ไทย+อังกฤษ] [SubThai+Eng] [MASTER] [MKV] [FILEFENIX] [ONE2UP]

[MINI-HD 1080P HQ] That Awkward Moment (2014) หนึ่ง ส่อง ซั่ม เอาวะ เลิกโสด

เจสัน (แซ็ค เอฟรอน), แดเนียล (ไมล์ เทลเลอร์) และ ไมกี้ (ไมเคิล บี จอร์แดน) 3 หนุ่มเพื่อนซี้ที่ต้องเจอกับปัญหาในเรื่องความสัมพันธ์คล้าย ๆ กัน นั่นคือหลังจากคบหาดูใจผู้หญิงไปได้สักพัก พวกเขาก็ไม่รู้ว่าจะพัฒนาความสัมพันธ์ต่อไปยังไง

หลังจากเพื่อนในแก๊งคนหนึ่งต้องอกหักอย่างรุนแรงจนไม่เป็นอันทำอะไร ทั้งสามจึงให้คำปฏิญาณว่าจะเป็นแก๊งค์หนุ่มโสดที่จะมีความสัมพันธ์แบบไม่ผูกมัด อย่างไรก็ตาม เจสัน ก็ดันไปเจอกับ เอลลี่ (อิโมเจน พูทส์) สาวในฝันอย่างไม่คาดคิด และก็ไม่สามารถเลิกคิดถึงเธอได้ ทำให้ เจสัน ต้องเลือกระหว่างมิตรภาพของเพื่อนฝูง กับวามรักที่เขาไม่คิดว่าจะเกิดขึ้นกับตัวเอง

[Mini-HD 1080p HQ] That Awkward Moment 2014[Load2up.com].mkv
Format : Matroska
Format version : Version 4 / Version 2
File size : 3.37 GiB
Duration : 1 h 34 min
Overall bit rate : 5 110 kb/s
Movie name : [Super Mini-HD 1080p HQ] That Awkward Moment 2014 1080p BluRay DTS x264
Encoded date : UTC 2010-02-22 21:41:31
Writing application : mkvmerge v5.9.0 (‘On The Loose’) built on Dec 9 2012 15:37:01
Writing library : libebml v1.3.0 + libmatroska v1.4.0

Video
ID : 1
Format : AVC
Format/Info : Advanced Video Codec
Format profile : [email protected]
Format settings, CABAC : Yes
Format settings, ReFrames : 4 frames
Codec ID : V_MPEG4/ISO/AVC
Duration : 1 h 34 min
Bit rate : 3 800 kb/s
Width : 1 920 pixels
Height : 800 pixels
Display aspect ratio : 2.40:1
Frame rate mode : Constant
Frame rate : 23.976 (24000/1001) FPS
Color space : YUV
Chroma subsampling : 4:2:0
Bit depth : 8 bits
Scan type : Progressive
Bits/(Pixel*Frame) : 0.103
Stream size : 2.51 GiB (74%)
Title : [Super Mini-HD 1080p HQ] That Awkward Moment 2014 1080p BluRay DTS x264
Writing library : x264 core 142 r2409 d6b4e63
Language : English
Default : Yes
Forced : No

Audio #1
ID : 2
Format : AC-3
Format/Info : Audio Coding 3
Mode extension : CM (complete main)
Format settings, Endianness : Big
Codec ID : A_AC3
Duration : 1 h 34 min
Bit rate mode : Constant
Bit rate : 448 kb/s
Channel(s) : 6 channels
Channel positions : Front: L C R, Side: L R, LFE
Sampling rate : 48.0 kHz
Frame rate : 31.250 FPS (1536 spf)
Compression mode : Lossy
Stream size : 303 MiB (9%)
Title : [THAI AC3 FROM DVD MASTER] Language : Thai
Default : Yes
Forced : No

Audio #2
ID : 3
Format : DTS
Format/Info : Digital Theater Systems
Mode : 16
Format settings, Endianness : Big
Codec ID : A_DTS
Duration : 1 h 34 min
Bit rate mode : Constant
Bit rate : 755 kb/s
Channel(s) : 6 channels
Channel positions : Front: L C R, Side: L R, LFE
Sampling rate : 48.0 kHz
Frame rate : 93.750 FPS (512 spf)
Bit depth : 24 bits
Compression mode : Lossy
Stream size : 510 MiB (15%)
Title : ENG DTS
Language : English
Default : No
Forced : No

Text #1
ID : 4
Format : VobSub
Codec ID : S_VOBSUB
Codec ID/Info : Picture based subtitle format used on DVDs
Title : [SUB THAI 480P FROM DVD MASTER] Language : Thai
Default : Yes
Forced : No

Text #2
ID : 5
Format : VobSub
Codec ID : S_VOBSUB
Codec ID/Info : Picture based subtitle format used on DVDs
Title : [SUB THAI 480P FROM DVD MASTER] Angsana UPC
Language : Thai
Default : No
Forced : No

Text #3
ID : 6
Format : VobSub
Codec ID : S_VOBSUB
Codec ID/Info : Picture based subtitle format used on DVDs
Title : [SUB THAI 480P FROM DVD MASTER] Language : Thai
Default : No
Forced : No

Text #4
ID : 7
Format : VobSub
Codec ID : S_VOBSUB
Codec ID/Info : Picture based subtitle format used on DVDs
Title : [SUB THAI 1080P FROM DVD MASTER] Language : Thai
Default : No
Forced : No

Text #5
ID : 8
Format : PGS
Codec ID : S_HDMV/PGS
Codec ID/Info : Picture based subtitle format used on BDs/HD-DVDs
Title : THAI PGS TH Sarabun
Language : Thai
Default : No
Forced : No

Text #6
ID : 9
Format : PGS
Codec ID : S_HDMV/PGS
Codec ID/Info : Picture based subtitle format used on BDs/HD-DVDs
Title : THAI PGS Angsana UPC
Language : Thai
Default : No
Forced : No

Text #7
ID : 10
Format : UTF-8
Codec ID : S_TEXT/UTF8
Codec ID/Info : UTF-8 Plain Text
Title : ENG SRT
Language : English
Default : No
Forced : No



หมายเหตุ ทุกเว็บโหลดแทนกันได้ แต่ต้องเปลี่ยนชื่อให้เรียงกันด้วย