Home > Master > [MINI-HD 1080P HQ] Oldboy (2013) โอลด์บอย เปิดบัญชีแค้น [พากย์อังกฤษ-ไทย] [SubThai+Eng] [MASTER] [MKV] [ONE2UP]

[MINI-HD 1080P HQ] Oldboy (2013) โอลด์บอย เปิดบัญชีแค้น [พากย์อังกฤษ-ไทย] [SubThai+Eng] [MASTER] [MKV] [ONE2UP]

[MINI-HD 1080P HQ] Oldboy (2013) โอลด์บอย เปิดบัญชีแค้น

.โจ (จอช โบรลิน) ถูกจับตัวและขังเดี่ยวเป็นเวลานานถึง 20 ปี โดยไม่มีเหตุผลหรือคำอธิบายใดๆ เมื่อถูกปล่อยตัวออกมาสิ่งเดียวที่อยู่ในหัวของเขาก็คือการตามล่าหาตัวคนที่อยู่เบื้องหลัง แต่สิ่งหนึ่งที่ โจ ไม่รู้ก็คือการเคลียร์บัญชีแค้นของเขายังอยู่ในแผนการของบุคคลปริศนา ที่กำลังสร้างมหากาพย์แห่งลงทัณฑ์ ที่ทั้งเจ็บปวดและชวนให้ตกตะลึงเกินกว่าที่จะจินตนาการถึง!!!

[Super Mini-HD 1080p HQ] Oldboy.2013.1080p.BluRay.DTS[Load2up.com].mkv
Format : Matroska
Format version : Version 4 / Version 2
File size : 3.82 GiB
Duration : 1 h 43 min
Overall bit rate mode : Variable
Overall bit rate : 5 267 kb/s
Movie name : [Super Mini-HD 1080p HQ] Oldboy.2013.1080p.BluRay.DTS
Encoded date : UTC 2014-04-23 08:49:10
Writing application : mkvmerge v6.2.0 (‘Promised Land’) built on Apr 28 2013 12:22:01
Writing library : libebml v1.3.0 + libmatroska v1.4.0

Video
ID : 1
Format : AVC
Format/Info : Advanced Video Codec
Format profile : [email protected]
Format settings, CABAC : Yes
Format settings, ReFrames : 4 frames
Codec ID : V_MPEG4/ISO/AVC
Duration : 1 h 43 min
Bit rate mode : Variable
Bit rate : 4 000 kb/s
Maximum bit rate : 40.0 Mb/s
Width : 1 920 pixels
Height : 800 pixels
Display aspect ratio : 2.40:1
Frame rate mode : Constant
Frame rate : 23.976 (24000/1001) FPS
Color space : YUV
Chroma subsampling : 4:2:0
Bit depth : 8 bits
Scan type : Progressive
Bits/(Pixel*Frame) : 0.109
Stream size : 2.87 GiB (75%)
Title : [Super Mini-HD 1080p HQ] Oldboy.2013.1080p.BluRay.DTS
Writing library : x264 core 140 r2377 1ca7bb9
Language : English
Default : Yes
Forced : No

Audio #1
ID : 2
Format : AC-3
Format/Info : Audio Coding 3
Mode extension : CM (complete main)
Format settings, Endianness : Big
Codec ID : A_AC3
Duration : 1 h 43 min
Bit rate mode : Constant
Bit rate : 448 kb/s
Channel(s) : 6 channels
Channel positions : Front: L C R, Side: L R, LFE
Sampling rate : 48.0 kHz
Frame rate : 31.250 FPS (1536 spf)
Bit depth : 16 bits
Compression mode : Lossy
Stream size : 333 MiB (9%)
Title : [THAI AC3 FROM DVD MASTER] Language : Thai
Default : Yes
Forced : No

Audio #2
ID : 3
Format : DTS
Format/Info : Digital Theater Systems
Mode : 16
Format settings, Endianness : Big
Codec ID : A_DTS
Duration : 1 h 43 min
Bit rate mode : Constant
Bit rate : 755 kb/s
Channel(s) : 6 channels
Channel positions : Front: L C R, Side: L R, LFE
Sampling rate : 48.0 kHz
Frame rate : 93.750 FPS (512 spf)
Bit depth : 24 bits
Compression mode : Lossy
Stream size : 561 MiB (14%)
Title : eng dts
Language : English
Default : No
Forced : No

Text #1
ID : 4
Format : VobSub
Codec ID : S_VOBSUB
Codec ID/Info : Picture based subtitle format used on DVDs
Title : [SUB THAI 480P FROM DVD MASTER] Freesia UPC
Language : Thai
Default : Yes
Forced : No

Text #2
ID : 5
Format : VobSub
Codec ID : S_VOBSUB
Codec ID/Info : Picture based subtitle format used on DVDs
Title : [SUB THAI 480P FROM DVD MASTER] Angsana UPC
Language : Thai
Default : No
Forced : No

Text #3
ID : 6
Format : VobSub
Codec ID : S_VOBSUB
Codec ID/Info : Picture based subtitle format used on DVDs
Title : [SUB THAI 480P FROM DVD MASTER] Freesia UPC
Language : Thai
Default : No
Forced : No

Text #4
ID : 7
Format : VobSub
Codec ID : S_VOBSUB
Codec ID/Info : Picture based subtitle format used on DVDs
Title : [SUB THAI 1080P FROM DVD MASTER] TH Sarabun
Language : Thai
Default : No
Forced : No

Text #5
ID : 8
Format : PGS
Codec ID : S_HDMV/PGS
Codec ID/Info : Picture based subtitle format used on BDs/HD-DVDs
Title : THAI PGS TH Sarabun
Language : Thai
Default : No
Forced : No

Text #6
ID : 9
Format : PGS
Codec ID : S_HDMV/PGS
Codec ID/Info : Picture based subtitle format used on BDs/HD-DVDs
Title : THAI PGS Angsana UPC
Language : Thai
Default : No
Forced : No

Text #7
ID : 10
Format : UTF-8
Codec ID : S_TEXT/UTF8
Codec ID/Info : UTF-8 Plain Text
Title : eng srt
Language : English
Default : No
Forced : No



หมายเหตุ ทุกเว็บโหลดแทนกันได้ แต่ต้องเปลี่ยนชื่อให้เรียงกันด้วย

สำหรับสมาชิก VIP เท่านั้น!

[restrict …]

|——————————————————————|

|——————————————————————|

[/restrict]