Home > Master > [MINI-HD 1080P] Gone Girl (2014) เล่นซ่อนหาย [พากย์ไทย+อังกฤษ] [SubThai+Eng] [MASTER] [MKV] [FILEFENIX] [ONE2UP]

[MINI-HD 1080P] Gone Girl (2014) เล่นซ่อนหาย [พากย์ไทย+อังกฤษ] [SubThai+Eng] [MASTER] [MKV] [FILEFENIX] [ONE2UP]

[MINI-HD 1080P] Gone Girl (2014) เล่นซ่อนหาย

Gone Girl ว่านี่คือหนังที่ดีที่สุดเรื่องหนึ่งของปี ไม่เพียงเท่านั้นมันยังเป็นหนังทริลเลอร์-ระทึกขวัญที่สนุกมาก
เรื่องหนึ่งในรอบหลายปีเลยก็ว่าได้ ผลงานการกำกับของเดวิด ฟินเชอร์เรื่องนี้เต็มไปด้วยลูกล่อลูกชน
การดำเนินเรื่องที่น่าสนใจ และเหตุการณ์หลายอย่างในเรื่องก็เหมือนพร้อมจะตลบหลังผู้ชมอยู่ตลอดเวลา

ผู้เขียนนิยายของเรื่อง(และยังทำหน้าที่ควบ) ในการเขียนบทภาพยนตร์อย่างกลินเลี่ยน ฟลินน์นั้น
เธอมีเซนส์ในการเขียนนิยายแนวระทึกขวัญ แน่นอนว่าเราเคยดูหนังแนวหักมุมและตัวละครหลัก
ที่ไม่น่าไว้วางใจมานับครั้งไม่ถ้วน แต่เธอก็เลือกที่จะสร้างตัวละครเอกของเรื่องไม่ว่าจะเป็น
นิค ดันน์(เบน อัฟเฟล็ค) และเอมี่ ดันน์(โรซามุนด์ ไพค์) ให้มีลักษณะไม่น่าไว้วางใจใครได้เลย

{MINI}Gone.Girl.2014.1080p.BluRay.x264.DTS[Load2up.com].mkv
Format : Matroska
Format version : Version 4 / Version 2
File size : 3.99 GiB
Duration : 2 h 29 min
Overall bit rate : 3 832 kb/s
Movie name : {MINI}Gone.Girl.2014.1080p.BluRay.x264.DTS
Encoded date : UTC 2010-02-22 21:41:31
Writing application : mkvmerge v5.9.0 (‘On The Loose’) built on Dec 9 2012 15:37:01
Writing library : libebml v1.3.0 + libmatroska v1.4.0

Video
ID : 1
Format : AVC
Format/Info : Advanced Video Codec
Format profile : [email protected]
Format settings, CABAC : Yes
Format settings, ReFrames : 4 frames
Codec ID : V_MPEG4/ISO/AVC
Duration : 2 h 29 min
Bit rate : 2 500 kb/s
Width : 1 920 pixels
Height : 800 pixels
Display aspect ratio : 2.40:1
Frame rate mode : Constant
Frame rate : 23.976 (23976/1000) FPS
Color space : YUV
Chroma subsampling : 4:2:0
Bit depth : 8 bits
Scan type : Progressive
Bits/(Pixel*Frame) : 0.068
Stream size : 2.66 GiB (67%)
Title : {MINI}Gone.Girl.2014.1080p.BluRay.x264.DTS
Writing library : x264 core 142 r2491M 24e4fed
Language : English
Default : Yes
Forced : No

Audio #1
ID : 2
Format : AC-3
Format/Info : Audio Coding 3
Mode extension : CM (complete main)
Format settings, Endianness : Big
Codec ID : A_AC3
Duration : 2 h 29 min
Bit rate mode : Constant
Bit rate : 448 kb/s
Channel(s) : 6 channels
Channel positions : Front: L C R, Side: L R, LFE
Sampling rate : 48.0 kHz
Frame rate : 31.250 FPS (1536 spf)
Compression mode : Lossy
Stream size : 478 MiB (12%)
Title : Thai BluRay Master
Language : English
Default : No
Forced : No

Audio #2
ID : 3
Format : DTS
Format/Info : Digital Theater Systems
Mode : 16
Format settings, Endianness : Big
Codec ID : A_DTS
Duration : 2 h 29 min
Bit rate mode : Constant
Bit rate : 755 kb/s
Channel(s) : 6 channels
Channel positions : Front: L C R, Side: L R, LFE
Sampling rate : 48.0 kHz
Frame rate : 93.750 FPS (512 spf)
Bit depth : 24 bits
Compression mode : Lossy
Stream size : 804 MiB (20%)
Title : English DTS
Language : English
Default : No
Forced : No

Text #1
ID : 4
Format : VobSub
Codec ID : S_VOBSUB
Codec ID/Info : Picture based subtitle format used on DVDs
Title : Thai 480p
Language : Thai
Default : No
Forced : No

Text #2
ID : 5
Format : VobSub
Codec ID : S_VOBSUB
Codec ID/Info : Picture based subtitle format used on DVDs
Title : Thai 720p
Language : Thai
Default : No
Forced : No

Text #3
ID : 6
Format : VobSub
Codec ID : S_VOBSUB
Codec ID/Info : Picture based subtitle format used on DVDs
Title : Thai 1080p
Language : Thai
Default : Yes
Forced : Yes

Text #4
ID : 7
Format : VobSub
Codec ID : S_VOBSUB
Codec ID/Info : Picture based subtitle format used on DVDs
Title : Thai 1080p Out
Language : Thai
Default : No
Forced : No

Text #5
ID : 8
Format : VobSub
Codec ID : S_VOBSUB
Codec ID/Info : Picture based subtitle format used on DVDs
Title : Thai 1080p Out [BIG] Language : Thai
Default : No
Forced : No

Text #6
ID : 9
Format : VobSub
Codec ID : S_VOBSUB
Codec ID/Info : Picture based subtitle format used on DVDs
Title : Thai 1080p BIG
Language : Thai
Default : No
Forced : No

Text #7
ID : 10
Format : PGS
Codec ID : S_HDMV/PGS
Codec ID/Info : Picture based subtitle format used on BDs/HD-DVDs
Title : Thai PGS
Language : Thai
Default : No
Forced : No

Text #8
ID : 11
Format : PGS
Codec ID : S_HDMV/PGS
Codec ID/Info : Picture based subtitle format used on BDs/HD-DVDs
Title : Thai PGS Out
Language : Thai
Default : No
Forced : No

Text #9
ID : 12
Format : VobSub
Codec ID : S_VOBSUB
Codec ID/Info : Picture based subtitle format used on DVDs
Title : English
Language : English
Default : No
Forced : No



หมายเหตุ ทุกเว็บโหลดแทนกันได้ แต่ต้องเปลี่ยนชื่อให้เรียงกันด้วย



สำหรับสมาชิก VIP เท่านั้น!

[restrict …]

|——————————————————————|

|——————————————————————|

[/restrict]

(Visited 2,975 times, 1 visits today)