Home > Master > [MINI-HD 1080P] Fanday (2016) แฟนเดย์..แฟนกันแค่วันเดียว [พากย์ไทย 5.1] [บรรยายไทย] [MASTER] [MKV] [FILEFENIX] [ONE2UP]

[MINI-HD 1080P] Fanday (2016) แฟนเดย์..แฟนกันแค่วันเดียว [พากย์ไทย 5.1] [บรรยายไทย] [MASTER] [MKV] [FILEFENIX] [ONE2UP]

[MINI-HD 1080P] Fanday (2016) แฟนเดย์..แฟนกันแค่วันเดียว

Fanday หรือชื่อไทยว่า แฟนเดย์..แฟนกันแค่วันเดียว เด่นชัย (เต๋อ ฉันทวิชช์ ธนะเสวี) เจ้าหน้าที่ไอทีสุดเนิร์ดประจาออฟฟิศ วัย 30 ผู้จะมีตัวตนในสายตาพนักงานคนอื่นแค่เวลาอุปกรณ์คอมพิวเตอร์เสีย ในชั่วโมงทางานที่แสนเร่งรีบไม่มีใครสนใจแม้แต่จะจาชื่อของเด่นชัย จนเขาแอบน้อยใจอยู่บ่อยๆ จนกระทั่งวันที่เขาได้ไปซ่อมปรินเตอร์ให้ “นุ้ย” (มิว นิษฐา จิรยั่งยืน) มาร์เก็ตติ้งสาวคนสวยผู้จดจำชื่อจริงของเขาได้ เด่นชัยตกหลุมรักความน่ารักและจริงใจของนุ้ยที่ทาให้เขารู้สึกเหมือนมีตัวตนขึ้นมา แต่ก็ทาได้เพียงเฝ้าเก็บรายละเอียดและดูแลเธออยู่ห่างๆ เพราะรู้ดีว่าหมาอย่างเขาคงได้แค่แหงนมองเครื่องบินแต่แล้ว เมื่อบริษัทของเด่นชัยพาพนักงานไปเที่ยวเอาท์ติ้งยังสกีรีสอร์ทที่ฮอกไกโด เด่นชัยได้ขอพรกับระฆังแห่งความรักของรีสอร์ทให้เขาได้เป็นแฟนกับนุ้ยแค่วันเดียวก็ยังดี โชคชะตาเล่นตลกเมื่อนุ้ยประสบอุบัติเหตุจากสกีจนหมดสติ พอนุ้ยฟื้นก็กลับมีอาการ โรคความจาเสื่อมชั่วคราว ที่เรียกกันว่าโรค TGA ซึ่งเป็นโรคความจาเสื่อมที่จะมีอาการอยู่เพียงแค่ 1 วันเท่านั้น…เด่นชัยคิดว่านี่เป็นโอกาสเดียวที่คนอย่างเขาจะได้ใกล้ชิดกับนุ้ย เขาตัดสินใจสวมรอยหลอกนุ้ยว่าทั้งสองเป็นแฟนกันและอยู่เที่ยวต่อกันเพียงสองคน เด่นชัยตั้งใจว่าจะพานุ้ยไปเที่ยวในทุกๆ ที่ที่เธออยากไปในฮอกไกโด ใช้เวลาสุดพิเศษของเขากับเธอในฐานะแฟนแม้ว่ามันจะเป็นการเป็นแฟนกันเพียงแค่วันเดียวก็ตาม…

Fanday 2016 DVDRip 1080p[load2up.com].mkv
Format : Matroska
Format version : Version 2
File size : 4.29 GiB
Duration : 2 h 9 min
Overall bit rate : 4 733 kb/s
Movie name : Fanday [2016] [DVDRip 720p] Encoded date : UTC 2016-12-02 19:04:05
Writing application : mkvmerge v3.4.0 (‘Rapunzel’) built on May 15 2010 09:38:20
Writing library : libebml v0.8.0 + libmatroska v0.9.0

Video
ID : 1
Format : MPEG-4 Visual
Format profile : Advanced [email protected]
Format settings, BVOP : 2
Format settings, QPel : No
Format settings, GMC : No warppoints
Format settings, Matrix : Default (H.263)
Codec ID : V_MS/VFW/FOURCC / DIVX
Codec ID/Info : Project Mayo
Codec ID/Hint : DivX 4
Duration : 2 h 9 min
Bit rate : 4 191 kb/s
Width : 1 920 pixels
Height : 816 pixels
Display aspect ratio : 2.35:1
Frame rate mode : Constant
Frame rate : 25.000 FPS
Color space : YUV
Chroma subsampling : 4:2:0
Bit depth : 8 bits
Scan type : Progressive
Compression mode : Lossy
Bits/(Pixel*Frame) : 0.107
Stream size : 3.80 GiB (89%)
Writing library : XviD 64
Default : Yes
Forced : No

Audio
ID : 2
Format : AC-3
Format/Info : Audio Coding 3
Mode extension : CM (complete main)
Format settings, Endianness : Big
Codec ID : A_AC3
Duration : 2 h 9 min
Bit rate mode : Constant
Bit rate : 448 kb/s
Channel(s) : 6 channels
Channel positions : Front: L C R, Side: L R, LFE
Sampling rate : 48.0 kHz
Frame rate : 31.250 FPS (1536 spf)
Compression mode : Lossy
Stream size : 416 MiB (9%)
Language : Thai
Default : No
Forced : Yes

Text
ID : 3
Format : VobSub
Muxing mode : zlib
Codec ID : S_VOBSUB
Codec ID/Info : Picture based subtitle format used on DVDs
Language : Thai
Default : No
Forced : Yes



หมายเหตุ ทุกเว็บโหลดแทนกันได้ แต่ต้องเปลี่ยนชื่อให้เรียงกันด้วย


สำหรับสมาชิก VIP เท่านั้น!