Home > Master > [MINI-HD 1080P] The Equalizer (2014) มัจจุราชไร้เงา [เสียงไทย 5.1 + อังกฤษ DTS] [บรรยายไทย + อังกฤษ] [MASTER] [MKV] [ONE2UP]

[MINI-HD 1080P] The Equalizer (2014) มัจจุราชไร้เงา [เสียงไทย 5.1 + อังกฤษ DTS] [บรรยายไทย + อังกฤษ] [MASTER] [MKV] [ONE2UP]

[MINI-HD 1080P] The Equalizer (2014) มัจจุราชไร้เงา

The Equalizer สร้างจากทีวีซีรีส์ชื่อเดียวกันซึ่งออกฉายเมื่อปี 1985 โดยบอกเล่าเรื่องราวของผู้ชายคนหนึ่ง (นำแสดงโดย เดนเซล วอชิงตัน รับบทเป็น โรเบิร์ต แม็คคอล) ที่ได้เก็บอดีตอันลึกลับของเขาแบบปิดตาย เหลือไว้เพียงแต่ชีวิตธรรมดา ๆ เรียบง่าย แต่แล้วชะตาของเขาก็ได้พลิกผัน เมื่อต้องมาเจอกับโสเภณีเด็กสาว (นำแสดงโดย โคลอี มอเรตซ์) ที่ถูกควบคุมโดยแก๊งมาเฟียรัสเซีย เขา… ผู้ที่ทนเห็นความโหดร้ายทารุณ และความไม่ถูกต้องไม่ได้ จึงต้องช่วยเด็กสาวที่ไร้ทางสู้ด้วยความสามารถ ไหวพริบ และความเร็วที่เหนือชั้นกว่า ถ้าใครที่ถูกทำร้ายและไร้ที่พึ่งพิง เขานี่แหละที่จะช่วยเหลือผู้คนมากมายได้ เพราะเขาคือ The Equalizer มัจจุราชไร้เงา!!!

The.Equalizer.2014.1080p.HQ.BluRay.DTS.x264.MASTER[Load2up.com].mkv
Format : Matroska
Format version : Version 4 / Version 2
File size : 3.89 GiB
Duration : 2 h 12 min
Overall bit rate : 4 220 kb/s
Movie name : www.hdrabbitfile.blogspot.com
Encoded date : UTC 2014-12-22 04:11:11
Writing application : mkvmerge v7.2.0 (‘On Every Street’) 64bit built on Sep 13 2014 15:52:10
Writing library : libebml v1.3.0 + libmatroska v1.4.1
Cover : Yes
Attachments : cover.png

Video
ID : 1
Format : AVC
Format/Info : Advanced Video Codec
Format profile : [email protected]
Format settings, CABAC : Yes
Format settings, ReFrames : 4 frames
Codec ID : V_MPEG4/ISO/AVC
Duration : 2 h 12 min
Bit rate : 2 999 kb/s
Width : 1 920 pixels
Height : 836 pixels
Display aspect ratio : 2.25:1
Original display aspect rat : 2.25:1
Frame rate mode : Constant
Frame rate : 23.976 (23976/1000) FPS
Color space : YUV
Chroma subsampling : 4:2:0
Bit depth : 8 bits
Scan type : Progressive
Bits/(Pixel*Frame) : 0.078
Stream size : 2.77 GiB (71%)
Title : The.Equalizer.2014.1080p.HQ.BluRay.DTS.x264.MASTER
Writing library : x264 core 130 r2273 b3065e6
Language : English
Default : Yes
Forced : No
Color range : Limited
Color primaries : BT.709
Transfer characteristics : BT.709
Matrix coefficients : BT.709

Audio #1
ID : 2
Format : AC-3
Format/Info : Audio Coding 3
Mode extension : CM (complete main)
Format settings, Endianness : Big
Codec ID : A_AC3
Duration : 2 h 12 min
Bit rate mode : Constant
Bit rate : 384 kb/s
Channel(s) : 6 channels
Channel positions : Front: L C R, Side: L R, LFE
Sampling rate : 48.0 kHz
Frame rate : 31.250 FPS (1536 spf)
Bit depth : 16 bits
Compression mode : Lossy
Stream size : 363 MiB (9%)
Title : 5.1 AC3 DVDMASTER
Language : Thai
Default : Yes
Forced : Yes

Audio #2
ID : 3
Format : DTS
Format/Info : Digital Theater Systems
Mode : 16
Format settings, Endianness : Big
Codec ID : A_DTS
Duration : 2 h 12 min
Bit rate mode : Constant
Bit rate : 755 kb/s
Channel(s) : 6 channels
Channel positions : Front: L C R, Side: L R, LFE
Sampling rate : 48.0 kHz
Frame rate : 93.750 FPS (512 spf)
Bit depth : 24 bits
Compression mode : Lossy
Stream size : 713 MiB (18%)
Title : 5.1 DTS 768
Language : English
Default : No
Forced : No

Text #1
ID : 4
Format : VobSub
Codec ID : S_VOBSUB
Codec ID/Info : Picture based subtitle format used on DVDs
Duration : 1 h 50 min
Bit rate : 69 b/s
Count of elements : 50
Stream size : 55.7 KiB (0%)
Title : 480P THAI FOR RUSSIA AUDIO
Language : Thai
Default : Yes
Forced : Yes

Text #2
ID : 5
Format : VobSub
Codec ID : S_VOBSUB
Codec ID/Info : Picture based subtitle format used on DVDs
Duration : 2 h 10 min
Bit rate : 1 350 b/s
Count of elements : 1110
Stream size : 1.26 MiB (0%)
Title : 480P FS
Language : Thai
Default : No
Forced : No

Text #3
ID : 6
Format : VobSub
Codec ID : S_VOBSUB
Codec ID/Info : Picture based subtitle format used on DVDs
Duration : 2 h 10 min
Bit rate : 1 350 b/s
Count of elements : 1110
Stream size : 1.26 MiB (0%)
Title : 480P FS UNDER
Language : Thai
Default : No
Forced : No

Text #4
ID : 7
Format : VobSub
Codec ID : S_VOBSUB
Codec ID/Info : Picture based subtitle format used on DVDs
Duration : 2 h 10 min
Bit rate : 5 211 b/s
Count of elements : 1110
Stream size : 4.87 MiB (0%)
Title : 1080P AS
Language : Thai
Default : No
Forced : No

Text #5
ID : 8
Format : VobSub
Codec ID : S_VOBSUB
Codec ID/Info : Picture based subtitle format used on DVDs
Duration : 2 h 10 min
Bit rate : 4 784 b/s
Count of elements : 1110
Stream size : 4.47 MiB (0%)
Title : 1080P TSA
Language : Thai
Default : No
Forced : No

Text #6
ID : 9
Format : VobSub
Codec ID : S_VOBSUB
Codec ID/Info : Picture based subtitle format used on DVDs
Duration : 2 h 10 min
Bit rate : 4 784 b/s
Count of elements : 1110
Stream size : 4.47 MiB (0%)
Title : 1080P TSA UNDER
Language : Thai
Default : No
Forced : No

Text #7
ID : 10
Format : UTF-8
Codec ID : S_TEXT/UTF8
Codec ID/Info : UTF-8 Plain Text
Duration : 1 h 50 min
Bit rate : 3 b/s
Count of elements : 54
Stream size : 2.50 KiB (0%)
Title : SRT THAI FOR RUSSIA AUDIO
Language : Thai
Default : No
Forced : No

Text #8
ID : 11
Format : UTF-8
Codec ID : S_TEXT/UTF8
Codec ID/Info : UTF-8 Plain Text
Duration : 2 h 10 min
Bit rate : 76 b/s
Count of elements : 1111
Stream size : 73.4 KiB (0%)
Title : SRT OCR BY ZAKKY
Language : Thai
Default : No
Forced : No

Text #9
ID : 12
Format : UTF-8
Codec ID : S_TEXT/UTF8
Codec ID/Info : UTF-8 Plain Text
Duration : 2 h 2 min
Bit rate : 40 b/s
Count of elements : 1072
Stream size : 35.8 KiB (0%)
Title : SRT
Language : English
Default : No
Forced : No

Text #10
ID : 13
Format : PGS
Codec ID : S_HDMV/PGS
Codec ID/Info : Picture based subtitle format used on BDs/HD-DVDs
Duration : 2 h 10 min
Bit rate : 21.8 kb/s
Count of elements : 2222
Stream size : 20.4 MiB (1%)
Title : AS
Language : Thai
Default : No
Forced : No

Text #11
ID : 14
Format : PGS
Codec ID : S_HDMV/PGS
Codec ID/Info : Picture based subtitle format used on BDs/HD-DVDs
Duration : 2 h 10 min
Bit rate : 20.5 kb/s
Count of elements : 2222
Stream size : 19.2 MiB (0%)
Title : TSA
Language : Thai
Default : No
Forced : No

Text #12
ID : 15
Format : PGS
Codec ID : S_HDMV/PGS
Codec ID/Info : Picture based subtitle format used on BDs/HD-DVDs
Duration : 2 h 10 min
Bit rate : 20.5 kb/s
Count of elements : 2220
Stream size : 19.1 MiB (0%)
Title : TSA UNDER
Language : Thai
Default : No
Forced : No



หมายเหตุ ทุกเว็บโหลดแทนกันได้ แต่ต้องเปลี่ยนชื่อให้เรียงกันด้วย

(Visited 2,444 times, 11 visits today)