[MINI-HD 1080P] A Street Cat Named Bob (2016) บ๊อบแมวเพื่อนคน [พากย์ไทย + อังกฤษ 5.1] [ซับ อังกฤษ] [MKV] [ONE2UP]

[MINI-HD 1080P] A Street Cat Named Bob (2016) บ๊อบแมวเพื่อนคน

เมื่อเจมส์ โบเวนพบแมวสีส้มที่เจ็บป่วยอยู่ตรงทางเดินเคหะสถาน เขาก็ไม่นึกว่าชีวิตของเขาจะเปลี่ยนไปได้เพียงนี้ จากเดิมเขาต้องร่อนเร่พเนจร เขาได้ช่วยชีวิตแมวตัวนั้นซึ่งเขาตั้งชื่อว่าบ๊อบ แมวตัวนั้นกลายเป็นคู่หูที่แยกจากกันไม่ได้ การเดินทางร้องเพลงเปิดหมวกของทั้งคู่ช่วยเติมเต็มระ หว่างกันและกัน และเยียวยาบาดแผลในอดีตของทั้งคู่อีกด้วย

A.Street.Cat.Named.Bob.2016[Load2up.com].mkv
Format : Matroska
Format version : Version 4 / Version 2
File size : 3.69 GiB
Duration : 1 h 42 min
Overall bit rate : 5 153 kb/s
Movie name : A.Street.Cat.Named.Bob.2016.1080p.WEB-DL.DD5.1.H264
Encoded date : UTC 2017-01-29 11:52:22
Writing application : mkvmerge v9.8.0 (‘Kuglblids’) 32bit
Writing library : libebml v1.3.4 + libmatroska v1.4.5
Cover : Yes

Video
ID : 1
Format : AVC
Format/Info : Advanced Video Codec
Format profile : [email protected]
Format settings, CABAC : Yes
Format settings, ReFrames : 5 frames
Codec ID : V_MPEG4/ISO/AVC
Duration : 1 h 42 min
Bit rate : 4 574 kb/s
Width : 1 920 pixels
Height : 816 pixels
Display aspect ratio : 2.35:1
Frame rate mode : Constant
Frame rate : 23.976 (23976/1000) FPS
Color space : YUV
Chroma subsampling : 4:2:0
Bit depth : 8 bits
Scan type : Progressive
Bits/(Pixel*Frame) : 0.122
Stream size : 3.28 GiB (89%)
Title : A.Street.Cat.Named.Bob.2016.1080p.WEB-DL.DD5.1.H264
Language : English
Default : Yes
Forced : No
Color range : Limited
Color primaries : BT.709
Transfer characteristics : BT.709
Matrix coefficients : BT.709

Audio #1
ID : 2
Format : AAC
Format/Info : Advanced Audio Codec
Format profile : LC
Codec ID : A_AAC
Duration : 1 h 42 min
Bit rate : 192 kb/s
Channel(s) : 2 channels
Channel positions : Front: L R
Sampling rate : 44.1 kHz
Frame rate : 43.066 FPS (1024 spf)
Compression mode : Lossy
Stream size : 141 MiB (4%)
Language : Thai
Default : Yes
Forced : No

Audio #2
ID : 3
Format : AC-3
Format/Info : Audio Coding 3
Mode extension : CM (complete main)
Format settings, Endianness : Big
Codec ID : A_AC3
Duration : 1 h 42 min
Bit rate mode : Constant
Bit rate : 384 kb/s
Channel(s) : 6 channels
Channel positions : Front: L C R, Side: L R, LFE
Sampling rate : 48.0 kHz
Frame rate : 31.250 FPS (1536 spf)
Bit depth : 16 bits
Compression mode : Lossy
Stream size : 282 MiB (7%)
Title : A.Street.Cat.Named.Bob.2016.1080p.WEB-DL.DD5.1.H264
Language : English
Default : No
Forced : No

Text
ID : 4
Format : UTF-8
Codec ID : S_TEXT/UTF8
Codec ID/Info : UTF-8 Plain Text
Duration : 1 h 36 min
Bit rate : 56 b/s
Count of elements : 1639
Stream size : 39.5 KiB (0%)
Language : English
Default : Yes
Forced : No



หมายเหตุ ทุกเว็บโหลดแทนกันได้ แต่ต้องเปลี่ยนชื่อให้เรียงกันด้วย

%d bloggers like this: