Home > Mini-HD > [MINI-HD 1080P] Popstar: Never Stop Stopping (2016) ป๊อปสตาร์: คนมันป๊อป สต๊อปไม่ได้ [พากย์อังกฤษ DTS] [บรรยายไทย + อังกฤษ] [MKV] [FILEFENIX] [ONE2UP]

[MINI-HD 1080P] Popstar: Never Stop Stopping (2016) ป๊อปสตาร์: คนมันป๊อป สต๊อปไม่ได้ [พากย์อังกฤษ DTS] [บรรยายไทย + อังกฤษ] [MKV] [FILEFENIX] [ONE2UP]

[MINI-HD 1080P] Popstar: Never Stop Stopping (2016) ป๊อปสตาร์: คนมันป๊อป สต๊อปไม่ได้

Popstar: Never Stop Stopping ด้วยมุขตลกเสียดสีวงการเพลงของสหรัฐ โดยเฉพาะการล้อจัสติน บีเบอร์ ที่น่าจะเป็นเป้าหมายหลัก แต่ดูเหมือนว่านักร้องคนอื่นที่มารับเชิญอย่างอดัม เลอวีน และ ซีล ก็ไม่ปลอดภัยเหมือนกัน หนังเป็นแนว ม็อกคูเมนทารี (mockumentary) หรือหนังแสร้งว่าเป็นสารคดีเพื่อเสียดสีล้อเลียน ตามติดชีวิตและเล่าประวัติของซูเปอร์สตาร์ป๊อปก้องโลก นามว่า Conner4Real (อดัม แซนด์เบิร์ก) ที่พยายามจะกลับมารุ่งอีกครั้งด้วยอัลบั้มใหม่ ที่ได้รับคำวิจารณ์ว่าห่วยแตก และงานหมั้นกับแฟนสาวด้วยธีมหมาป่าที่ก็ดูเหมือนว่าจะหายนะไม่ต่างจากเพลง ใครที่พอรู้เรื่องราวของจัสติน บีเบอร์ จะฮากลิ้งไปกับมุขล้อต่างๆ พร้อมนักแสดงรับเชิญคับคั่ง ได้แก่พิงก์, มาร์ติน ชีน, ซีล, อัสเชอร์, อดัม เลอวีน, มายา รูดอล์ฟ!!!

{MINI Super-HQ}_Popstar.Never.Stop.Never.Stopping.2016.1080p.BrRip.DTS.x264[Load2up.com].mkv
Format : Matroska
Format version : Version 4 / Version 2
File size : 3.77 GiB
Duration : 1 h 26 min
Overall bit rate : 6 235 kb/s
Movie name : {MINI Super-HQ}

_Popstar.Never.Stop.Never.Stopping.2016.1080p.BrRip.DTS.x264
Encoded date : UTC 2010-02-22 21:41:31
Writing application : mkvmerge v5.9.0 (‘On The Loose’) built on Dec 9 2012 15:37:01
Writing library : libebml v1.3.0 + libmatroska v1.4.0

Video
ID : 1
Format : AVC
Format/Info : Advanced Video Codec
Format profile : [email protected]
Format settings, CABAC : Yes
Format settings, ReFrames : 4 frames
Codec ID : V_MPEG4/ISO/AVC
Duration : 1 h 26 min
Bit rate : 5 115 kb/s
Width : 1 920 pixels
Height : 800 pixels
Display aspect ratio : 2.40:1
Frame rate mode : Constant
Frame rate : 23.976 (24000/1001) FPS
Color space : YUV
Chroma subsampling : 4:2:0
Bit depth : 8 bits
Scan type : Progressive
Bits/(Pixel*Frame) : 0.139
Stream size : 3.24 GiB (86%)
Title : {MINI Super-HQ}

_Popstar.Never.Stop.Never.Stopping.2016.1080p.BrRip.DTS.x264
Writing library : x264 core 130 r2273 b3065e6
Language : English
Default : Yes
Forced : No
Color range : Limited
Color primaries : BT.709
Transfer characteristics : BT.709
Matrix coefficients : BT.709

Audio
ID : 2
Format : DTS
Format/Info : Digital Theater Systems
Mode : 16
Format settings, Endianness : Big
Codec ID : A_DTS
Duration : 1 h 26 min
Bit rate mode : Constant
Bit rate : 755 kb/s
Channel(s) : 6 channels
Channel positions : Front: L C R, Side: L R, LFE
Sampling rate : 48.0 kHz
Frame rate : 93.750 FPS (512 spf)
Bit depth : 24 bits
Compression mode : Lossy
Stream size : 467 MiB (12%)
Title : English DTS
Language : English
Default : Yes
Forced : No

Text #1
ID : 3
Format : VobSub
Codec ID : S_VOBSUB
Codec ID/Info : Picture based subtitle format used on DVDs
Title : Thai 480p From DVD Master
Language : Thai
Default : No
Forced : No

Text #2
ID : 4
Format : VobSub
Codec ID : S_VOBSUB
Codec ID/Info : Picture based subtitle format used on DVDs
Title : Thai 720p
Language : Thai
Default : No
Forced : No

Text #3
ID : 5
Format : VobSub
Codec ID : S_VOBSUB
Codec ID/Info : Picture based subtitle format used on DVDs
Title : Thai 1080p
Language : Thai
Default : Yes
Forced : Yes

Text #4
ID : 6
Format : VobSub
Codec ID : S_VOBSUB
Codec ID/Info : Picture based subtitle format used on DVDs
Title : Thai 1080p Yellow
Language : Thai
Default : No
Forced : No

Text #5
ID : 7
Format : VobSub
Codec ID : S_VOBSUB
Codec ID/Info : Picture based subtitle format used on DVDs
Title : Thai 1080p Out
Language : Thai
Default : No
Forced : No

Text #6
ID : 8
Format : VobSub
Codec ID : S_VOBSUB
Codec ID/Info : Picture based subtitle format used on DVDs
Title : Thai 1080p BIG
Language : Thai
Default : No
Forced : No

Text #7
ID : 9
Format : VobSub
Codec ID : S_VOBSUB
Codec ID/Info : Picture based subtitle format used on DVDs
Title : Thai 1080p Out [BIG] Language : Thai
Default : No
Forced : No

Text #8
ID : 10
Format : PGS
Codec ID : S_HDMV/PGS
Codec ID/Info : Picture based subtitle format used on BDs/HD-DVDs
Title : Thai PGS
Language : Thai
Default : No
Forced : No

Text #9
ID : 11
Format : PGS
Codec ID : S_HDMV/PGS
Codec ID/Info : Picture based subtitle format used on BDs/HD-DVDs
Title : Thai PGS Yellow
Language : Thai
Default : No
Forced : No

Text #10
ID : 12
Format : PGS
Codec ID : S_HDMV/PGS
Codec ID/Info : Picture based subtitle format used on BDs/HD-DVDs
Title : Thai PGS Out
Language : Thai
Default : No
Forced : No

Text #11
ID : 13
Format : VobSub
Codec ID : S_VOBSUB
Codec ID/Info : Picture based subtitle format used on DVDs
Title : English
Language : English
Default : No
Forced : No



หมายเหตุ ทุกเว็บโหลดแทนกันได้ แต่ต้องเปลี่ยนชื่อให้เรียงกันด้วย