Home > Mini-HD > [MINI-HD 1080P HQ] Kubo and the Two Strings (2016) คูโบ้ และพิณมหัศจรรย์ [พากย์ไทย] [MKV] [FILEFENIX] [ONE2UP]

[MINI-HD 1080P HQ] Kubo and the Two Strings (2016) คูโบ้ และพิณมหัศจรรย์ [พากย์ไทย] [MKV] [FILEFENIX] [ONE2UP]

[MINI-HD 1080P HQ] Kubo and the Two Strings (2016) คูโบ้ และพิณมหัศจรรย์

Kubo and the Two Strings หรือชื่อไทยว่า คูโบ้ และมหัศจรรย์พิณสองสาย Kubo and the Two Strings คูโบ้และพิณมหัศจรรย์ แอนิเมชั่น-สต๊อปโมชั่น ผลงานล่าสุดจากไลก้า สตูดิโอผู้สร้าง Coraline, Paranorman และ The Boxtrolls พบกับเรื่องราวการผจญภัยของ คูโบ้ (ให้เสียงพากย์โดย อาร์ท พาร์คินสัน จาก Game of Thrones และ Dracula Untold) เด็กชายผู้ซึ่งมีความเฉลียวฉลาดและจิตใจงดงาม เขาใช้ชีวิตเรียบง่ายในเมืองริมทะเล ต่อมาชีวิตอันเงียบสงบของเขาก็หายไป เมื่อถูกวิญญาณอาฆาตตามรังควาน คูโบ้ ออกผจญภัยสุดระทึกร่วมกับลิง (เจ้าของรางวัลออสการ์ ชาร์ลิซ เธอรอน) และด้วง (เจ้าของรางวัลออสการ์ แมทธิว แม็คคอนาเฮย์) เพื่อปกป้องครอบครัวของเขา เขาออกค้นหาดาบ, เสื้อเกราะ และหมวกนักรบ เพื่อที่จะไขปริศนาของพ่อ ซามูไรนักรบผู้ยิ่งใหญ่ที่พลีชีพในสนามรบ คูโบ้ต้องต่อสู้กับเหล่าทวยเทพและอสุรกาย รวมถึง มูนคิง ผู้เต็มไปด้วยความอาฆาต (เรล์ฟ ไฟน์) และ คู่แฝดปีศาจ (รูนีย์ มาร่า) เพื่อไขความลับแห่งตำนาน และทำให้ครอบครัวมารวมกันอีกครั้ง

Kubo.and.the.Two.Strings.(2016)[Load2up.com].mkv
Format : Matroska
Format version : Version 4 / Version 2
File size : 2.97 GiB
Duration : 1 h 41 min
Overall bit rate : 4 186 kb/s
Movie name : Kubo.and.the.Two.Strings.(2016)[Load2up.com] Encoded date : UTC 2016-11-24 23:47:16
Writing application : mkvmerge v9.5.0 (‘Quiet Fire’) 32bit
Writing library : libebml v1.3.4 + libmatroska v1.4.5

Video
ID : 1
Format : AVC
Format/Info : Advanced Video Codec
Format profile : [email protected]
Format settings, CABAC : Yes
Format settings, ReFrames : 4 frames
Codec ID : V_MPEG4/ISO/AVC
Duration : 1 h 41 min
Bit rate : 3 800 kb/s
Width : 1 920 pixels
Height : 804 pixels
Display aspect ratio : 2.40:1
Frame rate mode : Constant
Frame rate : 23.976 (24000/1001) FPS
Color space : YUV
Chroma subsampling : 4:2:0
Bit depth : 8 bits
Scan type : Progressive
Bits/(Pixel*Frame) : 0.103
Stream size : 2.64 GiB (89%)
Title : Kubo.and.the.Two.Strings.2016.1080p.HQ.AC3.x264.THAI
Writing library : x264 core 142 r2431+42 c69a006 tMod [[email protected] X86] Language : English
Default : Yes
Forced : Yes

Audio
ID : 2
Format : AC-3
Format/Info : Audio Coding 3
Mode extension : CM (complete main)
Format settings, Endianness : Big
Codec ID : A_AC3
Duration : 1 h 41 min
Bit rate mode : Constant
Bit rate : 384 kb/s
Channel(s) : 6 channels
Channel positions : Front: L C R, Side: L R, LFE
Sampling rate : 48.0 kHz
Frame rate : 31.250 FPS (1536 spf)
Compression mode : Lossy
Stream size : 279 MiB (9%)
Title : TH AC3 DVD
Language : Thai
Default : Yes
Forced : Yes



หมายเหตุ ทุกเว็บโหลดแทนกันได้ แต่ต้องเปลี่ยนชื่อให้เรียงกันด้วย