Home > Master > [MINI-HD 1080P HQ] The Clan (2015) เดอะ แคลน [พากย์ไทย5.1+สเปนDTS] [บรรยายไทย+อังกฤษ] [MASTER] [MKV] [FILEFENIX] [ONE2UP]

[MINI-HD 1080P HQ] The Clan (2015) เดอะ แคลน [พากย์ไทย5.1+สเปนDTS] [บรรยายไทย+อังกฤษ] [MASTER] [MKV] [FILEFENIX] [ONE2UP]

[MINI-HD 1080P HQ] The Clan (2015) เดอะ แคลน

The Clan: พูชิโอ้ แคลน ฆาตกรผู้โด่งดังในอาเจนติน่าช่วงยุค 80 ภาพยนตร์ที่สร้างจากคดีสะเทือนขวัญที่เกิดขึ้นจริงเมื่อครอบครัวฆาตกรสุดโหดอย่างแคลนได้ลักพาตัวเพื่อนบ้านและจัดการสังหารเหยื่อทั้งหมดอย่างโหดเหี้ยมภาพยนตร์ที่ย้อนนำคุณเข้าสู่เหตุการณ์จริงของการกักขังหน่วงเหนี่ยวและลงมือสังหารเหยืออย่างทารุณที่ไม่ว่าใครก็สามารถตกเป็นเหยื่อของพวกเขาได้หากมันหมายตาไว้!!!

The.Clan.2015.1080p.SuperHQ.DTS.x264.DVD[Load2up.com].mkv
Format : Matroska
Format version : Version 4 / Version 2
File size : 3.89 GiB
Duration : 1 h 48 min
Overall bit rate : 5 142 kb/s
Movie name : The.Clan.2015.1080p.SuperHQ.DTS.x264.DVD[Load2up.com] Encoded date : UTC 2016-11-18 18:14:28
Writing application : mkvmerge v9.5.0 (‘Quiet Fire’) 32bit
Writing library : libebml v1.3.4 + libmatroska v1.4.5

Video
ID : 1
Format : AVC
Format/Info : Advanced Video Codec
Format profile : [email protected]
Format settings, CABAC : Yes
Format settings, ReFrames : 4 frames
Codec ID : V_MPEG4/ISO/AVC
Duration : 1 h 48 min
Bit rate : 3 839 kb/s
Width : 1 920 pixels
Height : 800 pixels
Display aspect ratio : 2.40:1
Frame rate mode : Constant
Frame rate : 23.976 (24000/1001) FPS
Color space : YUV
Chroma subsampling : 4:2:0
Bit depth : 8 bits
Scan type : Progressive
Bits/(Pixel*Frame) : 0.104
Stream size : 2.90 GiB (75%)
Title : The.Clan.2015.1080p.SuperHQ.DTS.x264.DVD
Writing library : x264 core 130 r2273 b3065e6
Language : Spanish
Default : Yes
Forced : Yes
Color range : Limited
Color primaries : BT.709
Transfer characteristics : BT.709
Matrix coefficients : BT.709

Audio #1
ID : 2
Format : AC-3
Format/Info : Audio Coding 3
Mode extension : CM (complete main)
Format settings, Endianness : Big
Codec ID : A_AC3
Duration : 1 h 48 min
Bit rate mode : Constant
Bit rate : 448 kb/s
Channel(s) : 6 channels
Channel positions : Front: L C R, Side: L R, LFE
Sampling rate : 48.0 kHz
Frame rate : 31.250 FPS (1536 spf)
Compression mode : Lossy
Stream size : 347 MiB (9%)
Title : TH AC3 DVD
Language : Thai
Default : Yes
Forced : Yes

Audio #2
ID : 3
Format : DTS
Format/Info : Digital Theater Systems
Mode : 16
Format settings, Endianness : Big
Codec ID : A_DTS
Duration : 1 h 48 min
Bit rate mode : Constant
Bit rate : 755 kb/s
Channel(s) : 6 channels
Channel positions : Front: L C R, Side: L R, LFE
Sampling rate : 48.0 kHz
Frame rate : 93.750 FPS (512 spf)
Bit depth : 24 bits
Compression mode : Lossy
Stream size : 584 MiB (15%)
Title : SP DTS
Language : Spanish
Default : No
Forced : No

Text #1
ID : 4
Format : VobSub
Codec ID : S_VOBSUB
Codec ID/Info : Picture based subtitle format used on DVDs
Title : TH 1080P
Language : Thai
Default : No
Forced : No

Text #2
ID : 5
Format : VobSub
Codec ID : S_VOBSUB
Codec ID/Info : Picture based subtitle format used on DVDs
Title : TH 1080P YELLOW
Language : Thai
Default : No
Forced : No

Text #3
ID : 6
Format : VobSub
Codec ID : S_VOBSUB
Codec ID/Info : Picture based subtitle format used on DVDs
Title : TH 1080P UNDER
Language : Thai
Default : No
Forced : No

Text #4
ID : 7
Format : VobSub
Codec ID : S_VOBSUB
Codec ID/Info : Picture based subtitle format used on DVDs
Title : TH 480P
Language : Thai
Default : No
Forced : No

Text #5
ID : 8
Format : UTF-8
Codec ID : S_TEXT/UTF8
Codec ID/Info : UTF-8 Plain Text
Title : TH SRT OCR
Language : Thai
Default : No
Forced : No

Text #6
ID : 9
Format : UTF-8
Codec ID : S_TEXT/UTF8
Codec ID/Info : UTF-8 Plain Text
Title : EN SRT
Language : English
Default : No
Forced : No

Text #7
ID : 10
Format : PGS
Codec ID : S_HDMV/PGS
Codec ID/Info : Picture based subtitle format used on BDs/HD-DVDs
Title : TH DN
Language : Thai
Default : Yes
Forced : Yes

Text #8
ID : 11
Format : PGS
Codec ID : S_HDMV/PGS
Codec ID/Info : Picture based subtitle format used on BDs/HD-DVDs
Title : TH DN UNDER
Language : Thai
Default : No
Forced : No



หมายเหตุ ทุกเว็บโหลดแทนกันได้ แต่ต้องเปลี่ยนชื่อให้เรียงกันด้วย