Home > หนัง Zoom > [Zoom] Fantastic Beasts and Where to Find Them (2016) สัตว์มหัศจรรย์และถิ่นที่อยู่ (HD-CAM) [พากย์ไทยโรง + อังกฤษ 2.0] [MKV] [FILEFENIX] [ONE2UP]

[Zoom] Fantastic Beasts and Where to Find Them (2016) สัตว์มหัศจรรย์และถิ่นที่อยู่ (HD-CAM) [พากย์ไทยโรง + อังกฤษ 2.0] [MKV] [FILEFENIX] [ONE2UP]

[Zoom] Fantastic Beasts and Where to Find Them (2016) สัตว์มหัศจรรย์และถิ่นที่อยู่

Fantastic Beasts and Where to Find Them ตามติดการเดินทางของ นิวต์ สคาแมนเดอร์ ศาสตราจารย์ด้านสัตว์วิเศษที่ออกเดินทางไปทั่วโลกเพื ่อเขียนตำราที่นักเรียนชั้นปี 1 ของฮอกวอตส์ทุกคนต้องอ่าน โดยเมื่อเขาเดินทางมาถึงนิวยอร์กในปี 1926 กระเป๋าเดินทางของเขากลับถูกโนมาจ (มักเกิ้ล) นามว่า จาค็อบ หยิบสลับไป เป็นเหตุให้สัตว์วิเศษที่อยู่ในนั้นถูกปล่อยออกมา จนอาจสร้างความวุ่นวายให้กับโลกมนุษย์และโลกพ่อมด

Fantastic.Beast.and.Where.To.Find.Them.2016.HD-TS.x264.AC3.THRONG[Load2up.com].mkv
Format : Matroska
Format version : Version 4 / Version 2
File size : 2.07 GiB
Duration : 2 h 4 min
Overall bit rate mode : Variable
Overall bit rate : 2 393 kb/s
Movie name : Fantastic.Beast.and.Where.To.Find.Them.2016.HD-TS.x264.AC3.THRONG
Encoded date : UTC 2016-12-01 03:09:19
Writing application : mkvmerge v9.5.0 (‘Quiet Fire’) 32bit
Writing library : libebml v1.3.4 + libmatroska v1.4.5

Video
ID : 1
Format : AVC
Format/Info : Advanced Video Codec
Format profile : [email protected]
Format settings, CABAC : Yes
Format settings, ReFrames : 4 frames
Codec ID : V_MPEG4/ISO/AVC
Duration : 2 h 4 min
Bit rate mode : Variable
Bit rate : 2 006 kb/s
Maximum bit rate : 62.5 Mb/s
Width : 720 pixels
Height : 320 pixels
Display aspect ratio : 2.25:1
Frame rate mode : Constant
Frame rate : 30.000 FPS
Color space : YUV
Chroma subsampling : 4:2:0
Bit depth : 8 bits
Scan type : Progressive
Bits/(Pixel*Frame) : 0.290
Stream size : 1.74 GiB (84%)
Title : Fantastic.Beast.and.Where.To.Find.Them.2016.HD-TS.x264.AC3.THRONG
Language : English
Default : Yes
Forced : Yes
Color range : Full
Color primaries : BT.709
Transfer characteristics : BT.709
Matrix coefficients : BT.709

Audio #1
ID : 2
Format : AC-3
Format/Info : Audio Coding 3
Mode extension : CM (complete main)
Format settings, Endianness : Big
Codec ID : A_AC3
Duration : 2 h 3 min
Bit rate mode : Constant
Bit rate : 192 kb/s
Channel(s) : 2 channels
Channel positions : Front: L R
Sampling rate : 48.0 kHz
Frame rate : 31.250 FPS (1536 spf)
Compression mode : Lossy
Stream size : 170 MiB (8%)
Title : TH AC3 THRONG
Language : Thai
Default : Yes
Forced : Yes

Audio #2
ID : 3
Format : MPEG Audio
Format version : Version 1
Format profile : Layer 3
Codec ID : A_MPEG/L3
Codec ID/Hint : MP3
Duration : 2 h 3 min
Bit rate mode : Constant
Bit rate : 192 kb/s
Channel(s) : 2 channels
Sampling rate : 44.1 kHz
Frame rate : 38.281 FPS (1152 spf)
Compression mode : Lossy
Delay relative to video : 101 ms
Stream size : 170 MiB (8%)
Title : EN MP3
Language : English
Default : No
Forced : No



หมายเหตุ ทุกเว็บโหลดแทนกันได้ แต่ต้องเปลี่ยนชื่อให้เรียงกันด้วย