Home > VIP > [ZOOM] THOR: RAGNAROK (2017) ศึกอวสานเทพเจ้า (HD-CAM) [พากย์ไทยโรง] [MKV] [ONE2UP]

[ZOOM] THOR: RAGNAROK (2017) ศึกอวสานเทพเจ้า (HD-CAM) [พากย์ไทยโรง] [MKV] [ONE2UP]

[ZOOM] THOR: RAGNAROK (2017) ศึกอวสานเทพเจ้า

Thor: Ragnarok เป็นภาพยนตร์ภาคที่ 3 ของ Thor เทพเจ้าสายฟ้า ในภาคนี้ธอร์ (รับบทโดย คริส เฮมส์เวิร์ธ) ถูกเนรเทศไปยังสุดขอบจักรวาล กลายเป็นนักโทษโดยปราศจากค้อนคู่ใจ เขาจะต้องหาทางกลับไปยังแอสการ์ดเพื่อหยุดยั้งมหาสงครามที่จะทำลายล้างดินแดนแห่งเทพ และจบสิ้นอารยธรรมแห่งแอสการ์ด ภายใต้เงื้อมมือของวายร้ายคนใหม่ที่ทรงพลังและโหดเหี้ยมที่สุด เฮล่า (รับบทโดย เคท แบลนเชตต์) แต่ก่อนอื่นเขาจะต้องเอาชีวิตรอดจากการต่อสู้แบบฉบับกลาดิเอเตอร์ให้ได้เสียก่อน ซึ่งคู่ต่อสู้ในคราวนี้เป็นถึงหนึ่งในทีมอเวนเจอร์ที่เขาคุ้นเคย…เดอะ ฮัลค์

Thor.Ragnarok.2017.720p.TS.x264.ThaiRong2.0[load2up.com].mkv
Format : Matroska
Format version : Version 4 / Version 2
File size : 2.41 GiB
Duration : 1 h 58 min
Overall bit rate mode : Variable
Overall bit rate : 2 916 kb/s
Movie name : [email protected]
Encoded date : UTC 2017-11-02 17:40:03
Writing application : mkvmerge v9.9.0 (‘Pick Up’) 64bit
Writing library : libebml v1.3.4 + libmatroska v1.4.5
Cover : Yes
Attachments : cover.jpg

Video
ID : 1
Format : AVC
Format/Info : Advanced Video Codec
Format profile : [email protected]
Format settings, CABAC : Yes
Format settings, ReFrames : 6 frames
Codec ID : V_MPEG4/ISO/AVC
Duration : 1 h 58 min
Bit rate mode : Variable
Bit rate : 2 731 kb/s
Maximum bit rate : 18.0 Mb/s
Width : 1 280 pixels
Height : 590 pixels
Display aspect ratio : 2.2:1
Frame rate mode : Constant
Frame rate : 29.970 (30000/1001) FPS
Standard : Component
Color space : YUV
Chroma subsampling : 4:2:0
Bit depth : 8 bits
Scan type : Progressive
Bits/(Pixel*Frame) : 0.121
Stream size : 2.24 GiB (93%)
Title : [email protected]
Writing library : x264 core 148
Encoding settings : cabac=1 / ref=6 / deblock=1:0:0 / analyse=0x3:0x113 / me=hex / subme=7 / psy=1 / psy_rd=1.00:0.00 / mixed_ref=1 / me_range=16 / chroma_me=1 / trellis=1 / 8x8dct=1 / cqm=1 / deadzone=21,11 / fast_pskip=1 / chroma_qp_offset=-2 / threads=12 / lookahead_threads=2 / sliced_threads=0 / slices=1 / nr=0 / decimate=1 / interlaced=0 / minigop=0 / stitchable=1 / constrained_intra=0 / bframes=3 / b_pyramid=0 / b_adapt=1 / b_bias=0 / direct=1 / weightb=1 / open_gop=0 / weightp=2 / keyint=250 / keyint_min=25 / scenecut=40 / intra_refresh=0 / rc_lookahead=40 / rc=abr / mbtree=1 / bitrate=2731 / ratetol=1.0 / qcomp=0.60 / qpmin=3 / qpmax=69 / qpstep=4 / vbv_maxrate=18000 / vbv_bufsize=18000 / nal_hrd=vbr / filler=0 / ip_ratio=1.40 / aq=1:1.00
Language : Russian
Default : Yes
Forced : No
Color range : Limited
Color primaries : BT.709
Transfer characteristics : BT.709
Matrix coefficients : BT.709

Audio
ID : 2
Format : AC-3
Format/Info : Audio Coding 3
Format settings, Endianness : Big
Codec ID : A_AC3
Duration : 1 h 58 min
Bit rate mode : Constant
Bit rate : 192 kb/s
Channel(s) : 2 channels
Channel positions : Front: L R
Sampling rate : 48.0 kHz
Frame rate : 31.250 FPS (1536 spf)
Bit depth : 16 bits
Compression mode : Lossy
Stream size : 162 MiB (7%)
Title : AC-3 ThaiRong 2.0 By ~Mr.Captain~
Language : Thai
Service kind : Complete Main
Default : Yes
Forced : No



หมายเหตุ ทุกเว็บโหลดแทนกันได้ แต่ต้องเปลี่ยนชื่อให้เรียงกันด้วย

Cloud2free

สำหรับสมาชิก VIP เท่านั้น!

[restrict …]

|——————————————————————|

|——————————————————————|

[/restrict]

(Visited 5,913 times, 125 visits today)