Home > หนัง Zoom > [ZOOM] STORKS (2016) บริการนกกระสาเบบี๋เดลิเวอรี่ [เสียงไทยโรง] [MKV] [FILEFENIX] [ONE2UP]

[ZOOM] STORKS (2016) บริการนกกระสาเบบี๋เดลิเวอรี่ [เสียงไทยโรง] [MKV] [FILEFENIX] [ONE2UP]

[ZOOM] STORKS (2016) บริการนกกระสาเบบี๋เดลิเวอรี่

Storks จากผลงานผู้สร้าง The LEGO Movie ที่จะพาคุณผู้ชมเข้าไปในโรงงาน Storks บริการดีๆ ที่จะผลิตและส่งทารกโดยนกกระสา ด้วยเทคโนโลยีที่ทันสมัยที่ทั้ง เพอร์เฟ็กต์ , เป๊ะ ไร้ตำหนิ , เนี้ยบนิ้่ง, ไม่มีปัญหา ไร้จุดผิดพลาด

Storks.2016.CAMHD.TH[Load2up.com].mkv
Format : Matroska
Format version : Version 4 / Version 2
File size : 692 MiB
Duration : 1 h 2 min
Overall bit rate : 1 541 kb/s
Encoded date : UTC 2016-10-04 05:23:08
Writing application : mkvmerge v9.4.0 (‘Knurl’) 64bit
Writing library : libebml v1.3.4 + libmatroska v1.4.5

Video
ID : 1
Format : AVC
Format/Info : Advanced Video Codec
Format profile : [email protected]
Format settings, CABAC : Yes
Format settings, ReFrames : 4 frames
Codec ID : V_MPEG4/ISO/AVC
Duration : 1 h 2 min
Bit rate : 1 349 kb/s
Width : 1 280 pixels
Height : 626 pixels
Display aspect ratio : 2.045
Frame rate mode : Constant
Frame rate : 23.976 (24000/1001) FPS
Color space : YUV
Chroma subsampling : 4:2:0
Bit depth : 8 bits
Scan type : Progressive
Bits/(Pixel*Frame) : 0.070
Stream size : 605 MiB (87%)
Writing library : x264 core 133
Default : Yes
Forced : No

Audio
ID : 2
Format : AAC
Format/Info : Advanced Audio Codec
Format profile : LC
Codec ID : A_AAC
Duration : 1 h 2 min
Bit rate : 192 kb/s
Channel(s) : 2 channels
Channel positions : Front: L R
Sampling rate : 44.1 kHz
Frame rate : 43.066 FPS (1024 spf)
Compression mode : Lossy
Stream size : 86.2 MiB (12%)
Language : Thai
Default : Yes
Forced : No



หมายเหตุ ทุกเว็บโหลดแทนกันได้ แต่ต้องเปลี่ยนชื่อให้เรียงกันด้วย