Home > หนัง Zoom > [ZooM] PARD 888 (2016) ป๊าด 888 แรงทะลุนรก [หนังซูม] [เสียงไทยโรง] [FILEFENIX] [ONE2UP]

[ZooM] PARD 888 (2016) ป๊าด 888 แรงทะลุนรก [หนังซูม] [เสียงไทยโรง] [FILEFENIX] [ONE2UP]

[ZooM] PARD 888 (2016) ป๊าด 888 แรงทะลุนรก [หนังซูม] [เสียงไทยโรง]

ป๊าด888 แรงทะลุนรก เป็นเรื่องราวของพร คนขับรถเมล์สุดซิ่งกับวิน กระเป๋ารถเมล์สุดกวนที่รับภารกิจส่งผู้โดยสารไปยังถึงที่หมายแต่ระหว่างทางเต็มไปด้วยเรื่องเล่าและเหตุวุ่นวายให้ทั้งสองได้แก้ปัญหาตลอดเวลาตั้งแต่ นักเลงตีกัน,พริตตี้ขึ้นรถเมล์,ผู้โดยสารหื่น รวมถึงการใช้ถนนเป็นลานประลองความเร็ว ซิ่งแรงแซงทุกคัน

Complete name : Pard 888 (2016) CAM-Zoom [Load2up.com].mkv
Format : Matroska
Format version : Version 4 / Version 2
File size : 315 MiB
Duration : 1 h 32 min
Overall bit rate : 479 kb/s
Encoded date : UTC 2016-10-18 03:00:44
Writing application : mkvmerge v9.4.0 (‘Knurl’) 64bit
Writing library : libebml v1.3.4 + libmatroska v1.4.5

Video
ID : 1
Format : AVC
Format/Info : Advanced Video Codec
Format settings, CABAC : No
Format settings, ReFrames : 1 frame
Format settings, GOP : M=1, N=60
Codec ID : V_MPEG4/ISO/AVC
Duration : 1 h 32 min
Bit rate : 380 kb/s
Width : 384 pixels
Height : 288 pixels
Display aspect ratio : 4:3
Frame rate mode : Variable
Frame rate : 24.867 FPS
Color space : YUV
Chroma subsampling : 4:2:0
Bit depth : 8 bits
Scan type : Progressive
Bits/(Pixel*Frame) : 0.138
Stream size : 251 MiB (79%)
Language : Thai
Default : Yes
Forced : No

Audio
ID : 2
Format : AAC
Format/Info : Advanced Audio Codec
Format profile : LC
Codec ID : A_AAC
Duration : 1 h 32 min
Bit rate : 96.0 kb/s
Channel(s) : 2 channels
Channel positions : Front: L R
Sampling rate : 44.1 kHz
Frame rate : 43.066 FPS (1024 spf)
Compression mode : Lossy
Stream size : 63.3 MiB (20%)
Language : Thai
Default : Yes
Forced : No



หมายเหตุ ทุกเว็บโหลดแทนกันได้ แต่ต้องเปลี่ยนชื่อให้เรียงกันด้วย