Home > หนัง Zoom > [ZOOM] MISS PEREGRINE (2016) บ้านเพริกริน เด็กสุดมหัศจรรย์ [เสียงไทยโรง] [MKV] [FILEFENIX] [ONE2UP]

[ZOOM] MISS PEREGRINE (2016) บ้านเพริกริน เด็กสุดมหัศจรรย์ [เสียงไทยโรง] [MKV] [FILEFENIX] [ONE2UP]

[ZOOM] MISS PEREGRINE (2016) บ้านเพริกริน เด็กสุดมหัศจรรย์

Miss Peregrine จากนวนิยายขายดีที่ได้รับการดัดแปลงผ่านจินตนาการสุดบรรเจิดของผู้กำกับ ทิม เบอร์ตัน สู่ประสบการณ์บนจอภาพยนตร์อันยากจะลืมเลือน เมื่อเจคค้นพบเงื่อนงำสู่ความลับที่เกี่ยวข้องกับความเป็นจริงและช่วงเวลาคู่ขนาน เขาจึงได้ไปเจอที่ซ่อนลับซึ่งมีชื่อว่าบ้านเด็กประหลาดของมิสเพริกริน หลังจากเจคได้รู้เรื่องราวของเหล่าผู้อยู่อาศัยภายในบ้านและพลังพิเศษของพวกเขา เจคจึงได้ตระหนักว่าความปลอดภัยเป็นเพียงสิ่งลวงตา และอันตรายซุ่มซ่อนอยู่ในรูปของศัตรูผู้ทรงพลัง เจคจึงต้องหาคำตอบว่าความเป็นจริงคืออะไร ใครที่เชื่อใจได้ และแท้จริงแล้วตัวเขาเองนั้นเป็นใคร

Miss.Peregrine.2016.CAMHD.TH[Load2up.com].mkv
Format : Matroska
Format version : Version 4 / Version 2
File size : 1.08 GiB
Duration : 2 h 0 min
Overall bit rate : 1 288 kb/s
Encoded date : UTC 2016-10-06 03:07:04
Writing application : mkvmerge v9.4.0 (‘Knurl’) 64bit
Writing library : libebml v1.3.4 + libmatroska v1.4.5

Video
ID : 1
Format : AVC
Format/Info : Advanced Video Codec
Format profile : [email protected]
Format settings, CABAC : Yes
Format settings, ReFrames : 4 frames
Codec ID : V_MPEG4/ISO/AVC
Duration : 2 h 0 min
Bit rate : 1 188 kb/s
Width : 1 280 pixels
Height : 544 pixels
Display aspect ratio : 2.35:1
Frame rate mode : Constant
Frame rate : 29.970 (30000/1001) FPS
Color space : YUV
Chroma subsampling : 4:2:0
Bit depth : 8 bits
Scan type : Progressive
Bits/(Pixel*Frame) : 0.057
Stream size : 1 023 MiB (92%)
Writing library : x264 core 133
Language : English
Default : Yes
Forced : No

Audio
ID : 2
Format : AAC
Format/Info : Advanced Audio Codec
Format profile : LC
Codec ID : A_AAC
Duration : 2 h 0 min
Bit rate : 96.0 kb/s
Channel(s) : 2 channels
Channel positions : Front: L R
Sampling rate : 44.1 kHz
Frame rate : 43.066 FPS (1024 spf)
Compression mode : Lossy
Delay relative to video : -23 ms
Stream size : 82.6 MiB (7%)
Default : Yes
Forced : No



หมายเหตุ ทุกเว็บโหลดแทนกันได้ แต่ต้องเปลี่ยนชื่อให้เรียงกันด้วย