Home > หนัง Zoom > [ZOOM] Magnificent Seven (2016) 7 สิงห์แดนเสือ [พากย์ไทยโรง] [MKV] [FILEFENIX] [ONE2UP]

[ZOOM] Magnificent Seven (2016) 7 สิงห์แดนเสือ [พากย์ไทยโรง] [MKV] [FILEFENIX] [ONE2UP]

[ZOOM] Magnificent Seven (2016) 7 สิงห์แดนเสือ

7 สิงห์แดนเสือ อีกหนึ่งผลงานสุดระห่ำจากผู้กำกับสายบู๊ อังตวน ฟูกัว (Training Day และ The Equalizer) นำแสดงโดย เดนเซล วอชิงตัน และหนุ่มมาดกวนอย่าง คริส แพรตต์ ร่วมด้วย อีธาน ฮอวค์, วินเซนต์ ดีโอโนฟริโอ, ลีบยองฮุน, มานูเอล กราเซีย-รัลโฟ และ มาร์ติน เซนสเมียร์ เจ็ดผู้ห้าวหาญจะหลอมรวมกันเป็นหนึ่ง 13 ตุลาคมนี้ ในโรงภาพยนตร์

The.Magnificent.Seven.2016.ZOOM.x264.AC3.THRONG[load2up.com].mkv
Format : Matroska
Format version : Version 4 / Version 2
File size : 2.15 GiB
Duration : 2 h 8 min
Overall bit rate mode : Variable
Overall bit rate : 2 397 kb/s
Movie name : The.Magnificent.Seven.2016.ZOOM.x264.AC3.THRONG[load2up.com] Encoded date : UTC 2016-10-15 03:28:07
Writing application : mkvmerge v8.9.0 (‘Father Daughter’) 32bit
Writing library : libebml v1.3.3 + libmatroska v1.4.4

Video
ID : 1
Format : AVC
Format/Info : Advanced Video Codec
Format profile : [email protected]
Format settings, CABAC : Yes
Format settings, ReFrames : 3 frames
Codec ID : V_MPEG4/ISO/AVC
Duration : 2 h 8 min
Bit rate mode : Variable
Bit rate : 2 200 kb/s
Maximum bit rate : 62.5 Mb/s
Width : 720 pixels
Height : 320 pixels
Display aspect ratio : 2.25:1
Frame rate mode : Constant
Frame rate : 29.970 (30000/1001) FPS
Color space : YUV
Chroma subsampling : 4:2:0
Bit depth : 8 bits
Scan type : Progressive
Bits/(Pixel*Frame) : 0.319
Stream size : 1.93 GiB (90%)
Title : The.Magnificent.Seven.2016.NEW.HD-TS.x264.AC3.THEATER
Writing library : x264 core 148 r2638 7599210
Language : English
Default : Yes
Forced : Yes
Color range : Full
Color primaries : BT.709
Transfer characteristics : BT.709
Matrix coefficients : BT.709

Audio
ID : 2
Format : AC-3
Format/Info : Audio Coding 3
Mode extension : CM (complete main)
Format settings, Endianness : Big
Codec ID : A_AC3
Duration : 2 h 8 min
Bit rate mode : Constant
Bit rate : 192 kb/s
Channel(s) : 2 channels
Channel positions : Front: L R
Sampling rate : 48.0 kHz
Frame rate : 31.250 FPS (1536 spf)
Compression mode : Lossy
Stream size : 176 MiB (8%)
Title : AC3 THEATER
Language : Thai
Default : Yes
Forced : Yes



หมายเหตุ ทุกเว็บโหลดแทนกันได้ แต่ต้องเปลี่ยนชื่อให้เรียงกันด้วย