Home > หนัง Zoom > [ZOOM] DEEPWATER HORIZON (2016) ฝ่าวิบัติเพลิงนรก [เสียงไทยโรง] [MKV] [FILEFENIX] [ONE2UP]

[ZOOM] DEEPWATER HORIZON (2016) ฝ่าวิบัติเพลิงนรก [เสียงไทยโรง] [MKV] [FILEFENIX] [ONE2UP]

[ZOOM] DEEPWATER HORIZON (2016) ฝ่าวิบัติเพลิงนรก

“Deepwater Horizon” ภาพยนตร์แนวมหันตภัยฟอร์มยักษ์ ที่สร้างมาจากเรื่องจริงของเหตุการณ์แท่นขุดเจาะน้ำมันระเบิดครั้งที่ยิ่งใหญ่ที่สุดครั้งหนึ่งในหน้าประวัติศาสตร์ โดยภาพยนตร์บอกเล่าถึงความกล้าหาญของเหล่าบรรดาคนงานบนแท่นขุดเจาะน้ำมันดิบชื่อว่า “ดีปวอเทอร์ ฮอไรซัน” ในอ่าวเม็กซิโกเมื่อปี 2010 ที่ต้องพยายามเอาชีวิตทั้งของตนเองและพวกพ้องให้รอดจากมหันตภัยครั้งนี้ ซึ่งนับเป็นเหตุการณ์ท้าทายขีดจำกัดของมนุษย์ที่ถูกบันทึกไว้ว่าเป็น การรั่วไหลนอกชายฝั่งครั้งที่ใหญ่ที่สุดในประวัติศาสตร์สหรัฐอเมริกา

Deepwater.Horizon.2016.CAMHD.TH[Load2up.com].mkv
Format : Matroska
Format version : Version 4 / Version 2
File size : 496 MiB
Duration : 1 h 37 min
Overall bit rate : 713 kb/s
Encoded date : UTC 2016-10-06 14:33:40
Writing application : mkvmerge v9.4.0 (‘Knurl’) 64bit
Writing library : libebml v1.3.4 + libmatroska v1.4.5

Video
ID : 1
Format : AVC
Format/Info : Advanced Video Codec
Format profile : [email protected]
Format settings, CABAC : Yes
Format settings, ReFrames : 4 frames
Codec ID : V_MPEG4/ISO/AVC
Duration : 1 h 36 min
Bit rate : 674 kb/s
Width : 1 280 pixels
Height : 532 pixels
Display aspect ratio : 2.40:1
Frame rate mode : Constant
Frame rate : 29.970 (30000/1001) FPS
Color space : YUV
Chroma subsampling : 4:2:0
Bit depth : 8 bits
Scan type : Progressive
Bits/(Pixel*Frame) : 0.033
Stream size : 461 MiB (93%)
Writing library : x264 core 133
Default : Yes
Forced : No

Audio
ID : 2
Format : AAC
Format/Info : Advanced Audio Codec
Format profile : HE-AACv2 / HE-AAC / LC
Codec ID : A_AAC
Duration : 1 h 37 min
Bit rate : 48.0 kb/s
Channel(s) : 2 channels / 1 channel / 1 channel
Channel positions : Front: L R / Front: C / Front: C
Sampling rate : 48.0 kHz / 48.0 kHz / 24.0 kHz
Frame rate : 23.438 FPS (1024 spf)
Compression mode : Lossy
Stream size : 33.4 MiB (7%)
Default : Yes
Forced : No



หมายเหตุ ทุกเว็บโหลดแทนกันได้ แต่ต้องเปลี่ยนชื่อให้เรียงกันด้วย