Home > หนัง Zoom > [Zoom] [HD-CAM] A Chinese Odyssey: Part Three (2016) ไซอิ๋ว เดี๋ยวลิงเดี๋ยวคน 3 [พากย์ไทยโรง] [MKV] [FILEFENIX] [ONE2UP]

[Zoom] [HD-CAM] A Chinese Odyssey: Part Three (2016) ไซอิ๋ว เดี๋ยวลิงเดี๋ยวคน 3 [พากย์ไทยโรง] [MKV] [FILEFENIX] [ONE2UP]

[Zoom] A Chinese Odyssey: Part Three (2016) ไซอิ๋ว เดี๋ยวลิงเดี๋ยวคน 3

A Chinese Odyssey: Part Three เป็นภาคต่อที่ทิ้งระยะไปนานมาก ก็ตั้ง 21 ปี ซึ่งในโลกนี้คงไม่มีใครที่จะทิ้งช่วงภาคต่อได้นานขนา ดนี้ ไม่ได้ดูภาค 1 และ 2 หรือลืมไปแล้ว มาดูก็อาจจะ งงๆ นิดนึงเพราะเนื้อเรื่องจะต่อกับภาคก่อนเลย แต่ก็จะมีบรรยายให้เราฟังช่วงต้นเรื่องทำให้ต่อมระลึ กชาติทำงานได้ แต่ทางที่ดีแนะนำให้ไปดู ภาค1 และ ภาค2 ก่อนมาดูภาค3 ในหนังให้ได้ครบนอกจากความฮาแล้ว ยังมีฉากต่อสู้ที่สุดมันส์ อารมณ์เศร้าก็มาด้วยเช่นกันโปรดักส์ชั่น : ถือว่าค่อนข้างลงตัวกับ CGI ที่อัดเต็มจัดหนักทั้งเรื่อง ถือว่าทำได้เนียนมาก คอสตูมก็อลังการ การเลือกนักแสดงมาก็สมบทบาทกันทุกตัวละคร ที่สำคัญถึงภาค 3 ไม่ใช่เฮียโจวซิงฉือแสดง แต่หานเกิงก็แสดงได้ทะเล้น ป่วน เนียนเป็นแบบไร้รอยต่อเรียกได้ว่าเป็นตัวแทนเฮียโจวเ ลยก็ว่าได้ แนะนำเลยว่าต้องดู

A.Chinese.Odyssey.Part.Three.2016.1080p.HDRip.HC.x264.AC3.THEATER[load2up.com].mkv
Format : Matroska
Format version : Version 4 / Version 2
File size : 1.06 GiB
Duration : 1 h 32 min
Overall bit rate mode : Variable
Overall bit rate : 1 634 kb/s
Movie name : A.Chinese.Odyssey.Part.Three.2016.1080p.HDRip.HC.x264.AC3.THEATER[load2up.com] Encoded date : UTC 2016-10-28 03:52:27
Writing application : mkvmerge v8.9.0 (‘Father Daughter’) 64bit
Writing library : libebml v1.3.3 + libmatroska v1.4.4

Video
ID : 1
Format : AVC
Format/Info : Advanced Video Codec
Format profile : [email protected]
Format settings, CABAC : Yes
Format settings, ReFrames : 4 frames
Codec ID : V_MPEG4/ISO/AVC
Duration : 1 h 32 min
Bit rate mode : Variable
Bit rate : 1 410 kb/s
Maximum bit rate : 40.0 Mb/s
Width : 1 920 pixels
Height : 816 pixels
Display aspect ratio : 2.35:1
Frame rate mode : Constant
Frame rate : 24.000 FPS
Color space : YUV
Chroma subsampling : 4:2:0
Bit depth : 8 bits
Scan type : Progressive
Bits/(Pixel*Frame) : 0.037
Stream size : 935 MiB (86%)
Title : A.Chinese.Odyssey.Part.Three.2016.1080p.HDRip.HC.x264.AC3.THEATER
Language : Chinese
Default : Yes
Forced : Yes

Audio
ID : 2
Format : AC-3
Format/Info : Audio Coding 3
Mode extension : CM (complete main)
Format settings, Endianness : Big
Codec ID : A_AC3
Duration : 1 h 32 min
Bit rate mode : Constant
Bit rate : 192 kb/s
Channel(s) : 2 channels
Channel positions : Front: L R
Sampling rate : 48.0 kHz
Frame rate : 31.250 FPS (1536 spf)
Compression mode : Lossy
Stream size : 127 MiB (12%)
Title : TH AC3 THEATER
Language : Thai
Default : Yes
Forced : Yes



หมายเหตุ ทุกเว็บโหลดแทนกันได้ แต่ต้องเปลี่ยนชื่อให้เรียงกันด้วย