Home > หนังไทย > [MINI-HD 720P] TAKE ME HOME (2016) สุขสันต์วันกลับบ้าน [เสียงไทย 5.1] [MKV] [FILEFENIX] [ONE2UP]

[MINI-HD 720P] TAKE ME HOME (2016) สุขสันต์วันกลับบ้าน [เสียงไทย 5.1] [MKV] [FILEFENIX] [ONE2UP]

[MINI-HD 720P] TAKE ME HOME (2016) สุขสันต์วันกลับบ้าน

Take Me Home สุขสันต์วันกลับบ้าน ชายหนุ่มที่ความจำเสื่อมจากการประสบอุบัติเหตุ และไม่สามารถจำอะไรได้เลยนอกจากชื่อของตัวเอง แทน พยายามหาข้อมูลมาตลอดว่า เขาคือใคร และครอบครัวเขาอยู่ที่ไหน จนวันหนึ่งเขาได้พบหลักฐานบางอย่างซึ่งจะนำพา แทน กลับบ้านอันแสนสุขของเขาอีกครั้ง ในบ้านหลังนี้ แทน ได้พบกับ ทับทิม (วรรณรท สนธิไชย) พี่สาวฝาแฝดของ แทน ที่แต่งงานอยู่กินกับ ชีวิน (ปีเตอร์ นพชัย) พ่อหม้ายลูกสอง พร้อมด้วย แวว (นภาดา สุขกิจ) แม่บ้านผู้เลี้ยงดูแทนมาตั้งแต่เด็ก โดย แทน ต้องเริ่มต้นครั้งใหม่ในการทำความรู้จักกับครอบครัวของเขา! แน่ใจหรือว่า. . .มีคนรอคุณอยู่ที่บ้าน บ้านหลังนี้เก็บความลับบางอย่างไว้ และบ้านหลังนี้น่ากลัวที่สุดเท่าที่คุณเคยกลับบ้านมา!!!

Take Me Home (2016) DVD To Scale 720p.AC3.x264[Load2up.com].mkv
Format : Matroska
Format version : Version 4 / Version 2
File size : 3.49 GiB
Duration : 1 h 29 min
Overall bit rate : 5 564 kb/s
Encoded date : UTC 2016-12-22 17:41:47
Writing application : mkvmerge v7.7.0 (‘Six Voices’) 32bit built on Feb 28 2015 23:23:00
Writing library : libebml v1.3.1 + libmatroska v1.4.2

Video
ID : 1
Format : AVC
Format/Info : Advanced Video Codec
Format profile : [email protected]
Format settings, CABAC : Yes
Format settings, ReFrames : 5 frames
Codec ID : V_MPEG4/ISO/AVC
Duration : 1 h 29 min
Bit rate : 5 224 kb/s
Width : 1 280 pixels
Height : 720 pixels
Display aspect ratio : 1.85:1
Original display aspect rat : 1.85:1
Frame rate mode : Constant
Frame rate : 25.000 FPS
Color space : YUV
Chroma subsampling : 4:2:0
Bit depth : 8 bits
Scan type : Progressive
Bits/(Pixel*Frame) : 0.227
Stream size : 3.21 GiB (92%)
Writing library : x264 core 146 r2538 121396c
Default : Yes
Forced : No

Audio
ID : 2
Format : AC-3
Format/Info : Audio Coding 3
Mode extension : CM (complete main)
Format settings, Endianness : Big
Codec ID : A_AC3
Duration : 1 h 29 min
Bit rate mode : Constant
Bit rate : 448 kb/s
Channel(s) : 6 channels
Channel positions : Front: L C R, Side: L R, LFE
Sampling rate : 48.0 kHz
Frame rate : 31.250 FPS (1536 spf)
Bit depth : 16 bits
Compression mode : Lossy
Stream size : 288 MiB (8%)
Language : Thai
Default : Yes
Forced : No



หมายเหตุ ทุกเว็บโหลดแทนกันได้ แต่ต้องเปลี่ยนชื่อให้เรียงกันด้วย