Home > Mini-HD > [MINI-HD 720P] LOGAN (2017) โลแกน เดอะ วูล์ฟเวอรีน [HDCAM] [พากษ์ไทยโรง AC3 2.0] [พากย์ไทยโรง] [MKV] [ONE2UP]

[MINI-HD 720P] LOGAN (2017) โลแกน เดอะ วูล์ฟเวอรีน [HDCAM] [พากษ์ไทยโรง AC3 2.0] [พากย์ไทยโรง] [MKV] [ONE2UP]

[MINI-HD 720P] LOGAN (2017) โลแกน เดอะ วูล์ฟเวอรีน

Logan กับการกลับมาอีกครั้งของ ฮิวจ์ แจ็คแมน กับบท วูล์ฟเวอรีน มนุษย์กลายพันธุ์สุดแข็งแกร่งคงกระพัน ซึ่ง Wolverine 3 เป็นหนังเดี่ยวภาคที่ 3 ของ วูล์ฟเวอรีน ต่อจาก X-Men Origins : Wolverine (2009) และThe Wolverine (2013) มีกำหนดเข้าฉาย 2 มีนาคม 2017 นำแสดงโดย ฮิวจ์ แจ็คแมน, แพทริค สจ๊วต,บอยด์ โฮลบรู๊ค, เอลิซาเบธ ร็อดริเกซ,สตีเฟ่น เมอร์แชนท์ กำกับการแสดงโดย เจมส์ แมนโกล์ด บทภาพยนตร์โดย ไมเคิล กรีน, เดวิด เคลลี่!!!

Logan 2017 NEW-HDCAM[Load2up.com].mkv
Format : Matroska
Format version : Version 4 / Version 2
File size : 2.70 GiB
Duration : 2 h 10 min
Overall bit rate : 2 951 kb/s
Movie name : Logan 2017 NEW-HDCAM
Encoded date : UTC 2017-03-08 14:43:57
Writing application : mkvmerge v9.8.0 (‘Kuglblids’) 64bit
Writing library : libebml v1.3.4 + libmatroska v1.4.5

Video
ID : 1
Format : MPEG-4 Visual
Format profile : Advanced [email protected]
Format settings, BVOP : 2
Format settings, QPel : No
Format settings, GMC : No warppoints
Format settings, Matrix : Default (H.263)
Codec ID : V_MS/VFW/FOURCC / DIVX
Codec ID/Info : Project Mayo
Codec ID/Hint : DivX 4
Duration : 2 h 10 min
Bit rate : 2 340 kb/s
Width : 718 pixels
Height : 328 pixels
Display aspect ratio : 2.2:1
Frame rate mode : Constant
Frame rate : 29.970 (29970/1000) FPS
Color space : YUV
Chroma subsampling : 4:2:0
Bit depth : 8 bits
Scan type : Progressive
Compression mode : Lossy
Bits/(Pixel*Frame) : 0.332
Stream size : 2.14 GiB (79%)
Title : Logan 2017 NEW-HDCAM
Writing library : XviD 64
Language : English
Default : Yes
Forced : No

Audio #1
ID : 2
Format : AAC
Format/Info : Advanced Audio Codec
Format profile : LC
Codec ID : A_AAC
Duration : 2 h 10 min
Bit rate : 96.0 kb/s
Channel(s) : 2 channels
Channel positions : Front: L R
Sampling rate : 44.1 kHz
Frame rate : 43.066 FPS (1024 spf)
Compression mode : Lossy
Stream size : 90.1 MiB (3%)
Title : AAC Eng 2.0
Language : English
Default : Yes
Forced : No

Audio #2
ID : 3
Format : AC-3
Format/Info : Audio Coding 3
Mode extension : CM (complete main)
Format settings, Endianness : Big
Codec ID : A_AC3
Duration : 2 h 10 min
Bit rate mode : Constant
Bit rate : 512 kb/s
Channel(s) : 2 channels
Channel positions : Front: L R
Sampling rate : 48.0 kHz
Frame rate : 31.250 FPS (1536 spf)
Bit depth : 16 bits
Compression mode : Lossy
Stream size : 479 MiB (17%)
Title : AC3_THAIRONG 2.0
Language : Thai
Default : No
Forced : No



หมายเหตุ ทุกเว็บโหลดแทนกันได้ แต่ต้องเปลี่ยนชื่อให้เรียงกันด้วย

สำหรับสมาชิก VIP เท่านั้น!

(Visited 7,957 times, 3 visits today)