Home > soundtrack > [MINI-HD 720P] Collide (2016) ซิ่งระห่ำ ทำเพื่อเธอ [Soundtrack บรรยายไทย] [MKV] [ONE2UP]

[MINI-HD 720P] Collide (2016) ซิ่งระห่ำ ทำเพื่อเธอ [Soundtrack บรรยายไทย] [MKV] [ONE2UP]

[MINI-HD 720P] Collide (2016) ซิ่งระห่ำ ทำเพื่อเธอ [Soundtrack บรรยายไทย]

เคซี่ย์ อดีตโจรปล้นรถได้ทิ้งอดีตไว้ข้างหลังแล้วไปใช้ชีวิตอย่างมีความสุขกับ จูเลียต แฟนสาวของเขาแต่ทว่าแฟนสาวของเขากลับพบว่ามีอาการป่วยอย่างหนักและต้องใช้เงินจำนวนมากเป็นค่ารักษานั่นทำให้เคซี่ย์ ไม่มีทางเลือกนอกจากกลับไปทำงานเก่าที่เขาสัญญากับจูเลียต ว่าจะไม่กลับไปทำอีกแต่แผนการปล้นทุกอย่างกลับผิดพลาดและนั่นทำให้จูเลียต ต้องตกเป็นเป้าของเจ้าพ่อค้ายารายใหญ่ที่สุดในเยอร์มัน

Collide.2016.720p.BRRip.XviD.AC3.SUBTH[Load2up.com].mkv
Format : Matroska
Format version : Version 4 / Version 2
File size : 2.99 GiB
Duration : 1 h 38 min
Overall bit rate : 4 342 kb/s
Encoded date : UTC 2010-02-22 21:41:31
Writing application : mkvmerge v5.9.0 (‘On The Loose’) built on Dec 9 2012 15:37:01
Writing library : libebml v1.3.0 + libmatroska v1.4.0

Video
ID : 1
Format : MPEG-4 Visual
Format profile : [email protected]
Format settings, BVOP : No
Format settings, QPel : No
Format settings, GMC : No warppoints
Format settings, Matrix : Default (H.263)
Codec ID : V_MS/VFW/FOURCC / XVID
Codec ID/Hint : XviD
Duration : 1 h 38 min
Bit rate : 3 616 kb/s
Width : 1 280 pixels
Height : 536 pixels
Display aspect ratio : 2.40:1
Frame rate mode : Constant
Frame rate : 23.976 FPS
Color space : YUV
Chroma subsampling : 4:2:0
Bit depth : 8 bits
Scan type : Progressive
Compression mode : Lossy
Bits/(Pixel*Frame) : 0.220
Stream size : 2.49 GiB (83%)
Writing library : Lavc56.60.100
Default : Yes
Forced : No

Audio
ID : 2
Format : AC-3
Format/Info : Audio Coding 3
Mode extension : CM (complete main)
Format settings, Endianness : Big
Muxing mode : Header stripping
Codec ID : A_AC3
Duration : 1 h 38 min
Bit rate mode : Constant
Bit rate : 640 kb/s
Channel(s) : 6 channels
Channel positions : Front: L C R, Side: L R, LFE
Sampling rate : 48.0 kHz
Frame rate : 31.250 FPS (1536 spf)
Bit depth : 16 bits
Compression mode : Lossy
Stream size : 452 MiB (15%)
Title : English
Language : English
Default : Yes
Forced : No

Text #1
ID : 3
Format : VobSub
Muxing mode : zlib
Codec ID : S_VOBSUB
Codec ID/Info : Picture based subtitle format used on DVDs
Title : Thai – Subtitle By Unknown
Language : Thai
Default : Yes
Forced : No

Text #2
ID : 4
Format : UTF-8
Codec ID : S_TEXT/UTF8
Codec ID/Info : UTF-8 Plain Text
Title : Thai.srt – Subtitle By Unknown
Language : Thai
Default : No
Forced : No

Text #3
ID : 5
Format : UTF-8
Codec ID : S_TEXT/UTF8
Codec ID/Info : UTF-8 Plain Text
Title : English
Language : English
Default : No
Forced : No



หมายเหตุ ทุกเว็บโหลดแทนกันได้ แต่ต้องเปลี่ยนชื่อให้เรียงกันด้วย