Home > Mini-HD > [MINI-HD 720P] 15+ ไอคิวกระฉูด (2017) 15+ IQ-Krachoot [พากย์ไทย 5.1] [MASTER] [MKV] [ONE2UP]

[MINI-HD 720P] 15+ ไอคิวกระฉูด (2017) 15+ IQ-Krachoot [พากย์ไทย 5.1] [MASTER] [MKV] [ONE2UP]

[MINI-HD 720P] 15+ ไอคิวกระฉูด (2017) 15+ IQ-Krachoot

15+ ไอเดียกระฉูด: ภาพยนตร์วัยรุ่นตลกทะลึ่งน่าเอ็นดูที่หนุ่มยอร์ช แตกเนื้อหนุ่ม เปิดซิงรับบทนำครั้งแรกบนจอภาพยนตร์ เล่าเรื่องราวสนุกป่วนฮาของแก๊งวัยรุ่นวัยเห่ออายุ 15+ ฮอร์โมนพลุ่งพล่านที่ความอยากรู้อยากลองในเรื่องรักและเซ็กส์ของพวกเขาได้กระฉูดความวายป่วงออกมาแบบไม่ทันตั้งตัว

15+ IQ-Krachoot.2017.720p.AC3.x264.CtHts[Load2up.com].mkv
Format : Matroska
Format version : Version 4 / Version 2
File size : 3.46 GiB
Duration : 1 h 37 min
Overall bit rate : 5 100 kb/s
Encoded date : UTC 2017-10-27 12:37:31
Writing application : mkvmerge v7.7.0 (‘Six Voices’) 32bit built on Feb 28 2015 23:23:00
Writing library : libebml v1.3.1 + libmatroska v1.4.2

Video
ID : 1
Format : AVC
Format/Info : Advanced Video Codec
Format profile : [email protected]
Format settings, CABAC : Yes
Format settings, ReFrames : 4 frames
Codec ID : V_MPEG4/ISO/AVC
Duration : 1 h 37 min
Bit rate : 4 748 kb/s
Width : 1 280 pixels
Height : 720 pixels
Display aspect ratio : 1.85:1
Original display aspect rat : 1.85:1
Frame rate mode : Constant
Frame rate : 25.000 FPS
Color space : YUV
Chroma subsampling : 4:2:0
Bit depth : 8 bits
Scan type : Progressive
Bits/(Pixel*Frame) : 0.206
Stream size : 3.19 GiB (92%)
Writing library : x264 core 146 r2538 121396c
Encoding settings : cabac=1 / ref=3 / deblock=1:0:0 / analyse=0x3:0x113 / me=umh / subme=10 / psy=1 / psy_rd=1.00:0.00 / mixed_ref=1 / me_range=24 / chroma_me=1 / trellis=2 / 8x8dct=1 / cqm=0 / deadzone=21,11 / fast_pskip=1 / chroma_qp_offset=-2 / threads=12 / lookahead_threads=1 / sliced_threads=0 / nr=0 / decimate=1 / interlaced=0 / bluray_compat=0 / constrained_intra=0 / bframes=3 / b_pyramid=2 / b_adapt=1 / b_bias=0 / direct=1 / weightb=1 / open_gop=0 / weightp=2 / keyint=250 / keyint_min=25 / scenecut=40 / intra_refresh=0 / rc_lookahead=40 / rc=abr / mbtree=1 / bitrate=4748 / ratetol=1.0 / qcomp=0.60 / qpmin=0 / qpmax=69 / qpstep=4 / ip_ratio=1.40 / aq=1:1.00
Default : Yes
Forced : No

Audio
ID : 2
Format : AC-3
Format/Info : Audio Coding 3
Format settings, Endianness : Big
Codec ID : A_AC3
Duration : 1 h 37 min
Bit rate mode : Constant
Bit rate : 384 kb/s
Channel(s) : 6 channels
Channel positions : Front: L C R, Side: L R, LFE
Sampling rate : 48.0 kHz
Frame rate : 31.250 FPS (1536 spf)
Bit depth : 16 bits
Compression mode : Lossy
Stream size : 266 MiB (8%)
Language : Thai
Service kind : Complete Main
Default : Yes
Forced : No



หมายเหตุ ทุกเว็บโหลดแทนกันได้ แต่ต้องเปลี่ยนชื่อให้เรียงกันด้วย

Cloud2free

สำหรับสมาชิก VIP เท่านั้น!

[restrict …]

|——————————————————————|

|——————————————————————|

[/restrict]

(Visited 5,076 times, 61 visits today)