Home > Mini-HD > [MINI-HD 1080P] Wind River (2017) ล่าเดือด เลือดเย็น [พากย์ไทยโรงชัด + อังกฤษ 5.1] [ซับอังกฤษ] [MKV] [ONE2UP]

[MINI-HD 1080P] Wind River (2017) ล่าเดือด เลือดเย็น [พากย์ไทยโรงชัด + อังกฤษ 5.1] [ซับอังกฤษ] [MKV] [ONE2UP]

[MINI-HD 1080P] Wind River (2017) ล่าเดือด เลือดเย็น

เรื่องราวกล่าวถึงคดีการฆาตกรรมปริศนาที่เกิดขึ้นในทุ่งน้ำแข็ง ใกล้กับเขตที่อยู่อาศัยของชนเผ่าอินเดียนแดง เมื่อการตายของหญิงสาวชนเผ่าอินเดียนแดงได้นำไปสู่การตามไขคดีที่พาไปถึงต้นตอของอันตรายบางอย่างที่พร้อมจะพรากเอาชีวิตของผู้ที่คิดจะล่วงรู้ได้เธอถูกใครฆ่า? และอะไรคือสาเหตุของคดีฆาตกรรมทุ่งน้ำแข็งอันเย็นยะเยือกแห่งนี้ ร่วมกันหาคำตอบได้ในโรงภาพยนตร์เท่านั้น!!

Wind.River.2017.1080p.WEB-DL.DD5.1.H264-ThaiRong 2.0[Load2up.com].mkv
Format : Matroska
Format version : Version 4 / Version 2
File size : 3.98 GiB
Duration : 1 h 46 min
Overall bit rate : 5 323 kb/s
Movie name : Wind.River.2017.1080p.WEB-DL.DD5.1.H264-ThaiRong 2.0
Encoded date : UTC 2017-12-03 14:30:18
Writing application : mkvmerge v17.0.0 (‘Be Ur Friend’) 64-bit
Writing library : libebml v1.3.5 + libmatroska v1.4.8
Cover : Yes
Attachments : cover_land.jpg / small_cover.jpg / small_cover_land.jpg / cover.jpg

Video
ID : 1
Format : AVC
Format/Info : Advanced Video Codec
Format profile : [email protected]
Format settings, CABAC : Yes
Format settings, ReFrames : 5 frames
Codec ID : V_MPEG4/ISO/AVC
Duration : 1 h 46 min
Bit rate : 4 509 kb/s
Width : 1 912 pixels
Height : 800 pixels
Display aspect ratio : 2.40:1
Frame rate mode : Constant
Frame rate : 24.000 FPS
Color space : YUV
Chroma subsampling : 4:2:0
Bit depth : 8 bits
Scan type : Progressive
Bits/(Pixel*Frame) : 0.123
Stream size : 3.37 GiB (85%)
Title : Wind.River.2017.1080p.WEB-DL.DD5.1.H264-ThaiRong 2.0
Language : English
Default : Yes
Forced : No
Color range : Limited
Color primaries : BT.709
Transfer characteristics : BT.709
Matrix coefficients : BT.709

Audio #1
ID : 2
Format : AC-3
Format/Info : Audio Coding 3
Format settings, Endianness : Big
Codec ID : A_AC3
Duration : 1 h 46 min
Bit rate mode : Constant
Bit rate : 384 kb/s
Channel(s) : 6 channels
Channel positions : Front: L C R, Side: L R, LFE
Sampling rate : 48.0 kHz
Frame rate : 31.250 FPS (1536 spf)
Bit depth : 16 bits
Compression mode : Lossy
Stream size : 294 MiB (7%)
Title : English AC-3 5.1 – 384 Kbps
Language : English
Service kind : Complete Main
Default : No
Forced : No

Audio #2
ID : 3
Format : AC-3
Format/Info : Audio Coding 3
Format settings, Endianness : Big
Codec ID : A_AC3
Duration : 1 h 46 min
Bit rate mode : Constant
Bit rate : 224 kb/s
Channel(s) : 2 channels
Channel positions : Front: L R
Sampling rate : 48.0 kHz
Frame rate : 31.250 FPS (1536 spf)
Bit depth : 16 bits
Compression mode : Lossy
Stream size : 171 MiB (4%)
Title : ThaiRong AC-3 2.0 – 224 Kbps
Language : Thai
Service kind : Complete Main
Default : No
Forced : No

Audio #3
ID : 4
Format : AC-3
Format/Info : Audio Coding 3
Format settings, Endianness : Big
Codec ID : A_AC3
Duration : 1 h 46 min
Bit rate mode : Constant
Bit rate : 192 kb/s
Channel(s) : 2 channels
Channel positions : Front: L R
Sampling rate : 48.0 kHz
Frame rate : 31.250 FPS (1536 spf)
Bit depth : 16 bits
Compression mode : Lossy
Stream size : 147 MiB (4%)
Title : ThaiRong AC-3 2.0 – 192 Kbps
Language : Thai
Service kind : Complete Main
Default : Yes
Forced : Yes

Text #1
ID : 5
Format : UTF-8
Codec ID : S_TEXT/UTF8
Codec ID/Info : UTF-8 Plain Text
Duration : 1 h 43 min
Bit rate : 51 b/s
Count of elements : 1246
Stream size : 39.6 KiB (0%)
Title : SRT
Language : English
Default : No
Forced : No

Text #2
ID : 6
Format : PGS
Muxing mode : zlib
Codec ID : S_HDMV/PGS
Codec ID/Info : Picture based subtitle format used on BDs/HD-DVDs
Duration : 1 h 43 min
Bit rate : 23.5 kb/s
Count of elements : 2492
Stream size : 17.5 MiB (0%)
Title : English
Language : English
Default : No
Forced : No

Text #3
ID : 7
Format : PGS
Muxing mode : zlib
Codec ID : S_HDMV/PGS
Codec ID/Info : Picture based subtitle format used on BDs/HD-DVDs
Duration : 1 h 43 min
Bit rate : 23.5 kb/s
Count of elements : 2492
Stream size : 17.5 MiB (0%)
Title : Yellow
Language : English
Default : Yes
Forced : No



หมายเหตุ ทุกเว็บโหลดแทนกันได้ แต่ต้องเปลี่ยนชื่อให้เรียงกันด้วย

Cloud2free

สำหรับสมาชิก VIP เท่านั้น!

[restrict …]

|——————————————————————|

|——————————————————————|

[/restrict]