Home > Mini-HD > [MINI-HD 1080P] Valerian and the City of a Thousand Planets (2017) วาเลเรียน พลิกจักรวาล [พากย์ไทยโรง + อังกฤษ 5.1] [ซับอังกฤษ] [MKV] [ONE2UP]

[MINI-HD 1080P] Valerian and the City of a Thousand Planets (2017) วาเลเรียน พลิกจักรวาล [พากย์ไทยโรง + อังกฤษ 5.1] [ซับอังกฤษ] [MKV] [ONE2UP]

[MINI-HD 1080P] Valerian and the City of a Thousand Planets (2017) วาเลเรียน พลิกจักรวาล

Valerian มหึมาภาพยนตร์แอคชั่น-ไซไฟฟอร์มยักษ์ทุนสร้างกว่า 170 ล้านเหรียญฯ “Valerian and the City of a Thousand Planets” (วาเลอเรี่ยน แอนด์ เดอะ ซิตี้ ออฟ อะ ทาวเซนด์แพลเน็ตส์) ที่สร้างจากงานไซไฟคอมมิคส์อันดับหนึ่งของ บอกเล่าถึงเรื่องราวของ วาเลอเรี่ยน (เดน ดีฮาน) และ ลอเรลีน (คาร่า เดเลวีน) เป็นเจ้าหน้าที่ปฏิบัติการพิเศษขององค์การปกครองเขตแดนมนุษยชาติ พวกเขามีหน้าที่พิทักษ์สันติสุขให้กับประชาชนทั่วจักรวาลวันหนึ่งเมื่อพวกเขาได้รับคำสั่งจากผู้บัญชาการ อารุน ฟิลลิตต์ (ไคลฟ์ โอเว่น) ทั้งสองจึงต้องออกเดินทางไปยังมหานครอัลฟ่า ดินแดนสุดอัศจรรย์ใจกลางอวกาศที่มีสิ่งมีชีวิตเป็นหมื่นๆ สปีชีส์จากทั่วทุกมุมจักรวาลอาศัยอยู่ร่วมกัน แต่โชคไม่ดีนักที่มีหายนะกำลังแฝงตัวคืบคลานอยู่ในความมืด และกำลังจ้องจะทำลายเผ่าพันธุ์มนุษย์ให้หมดสิ้น วาเลอเรี่ยนและลอเรลีนจึงต้องออกผจญภัยครั้งยิ่งใหญ่ ทะยานฝ่าสมรภูมิกาแลคซี่ เพื่อปกป้องนาคตของทุกเผ่าพันธุ์ไปพร้อมกัน

Valerian.and.the.City.of.a.Thousand.Planets.2017.1080p.WEB-DL.DD5.1.H264-THR[load2up.com].mkv
Format : Matroska
Format version : Version 4 / Version 2
File size : 4.87 GiB
Duration : 2 h 17 min
Overall bit rate : 5 080 kb/s
Movie name : Valerian.and.the.City.of.a.Thousand.Planets.2017.1080p.WEB-DL.DD5.1.H264
Encoded date : UTC 2017-11-03 13:07:18
Writing application : mkvmerge v16.0.0 (‘Protest’) 32-bit
Writing library : libebml v1.3.5 + libmatroska v1.4.8
Cover : Yes
Attachments : small_cover.jpg / small_cover_land.jpg / cover.jpg / cover_land.jpg

Video
ID : 1
Format : AVC
Format/Info : Advanced Video Codec
Format profile : [email protected]
Format settings, CABAC : Yes
Format settings, ReFrames : 5 frames
Codec ID : V_MPEG4/ISO/AVC
Duration : 2 h 17 min
Bit rate : 4 502 kb/s
Width : 1 920 pixels
Height : 804 pixels
Display aspect ratio : 2.40:1
Frame rate mode : Constant
Frame rate : 24.000 FPS
Color space : YUV
Chroma subsampling : 4:2:0
Bit depth : 8 bits
Scan type : Progressive
Bits/(Pixel*Frame) : 0.122
Stream size : 4.32 GiB (89%)
Title : Valerian.and.the.City.of.a.Thousand.Planets.2017.1080p.WEB-DL.DD5.1.H264
Language : English
Default : Yes
Forced : No
Color range : Limited
Color primaries : BT.709
Transfer characteristics : BT.709
Matrix coefficients : BT.709

Audio #1
ID : 2
Format : AC-3
Format/Info : Audio Coding 3
Format settings, Endianness : Big
Codec ID : A_AC3
Duration : 2 h 17 min
Bit rate mode : Constant
Bit rate : 192 kb/s
Channel(s) : 2 channels
Channel positions : Front: L R
Sampling rate : 48.0 kHz
Frame rate : 31.250 FPS (1536 spf)
Bit depth : 16 bits
Compression mode : Lossy
Stream size : 189 MiB (4%)
Title : THR By Wwwoo
Language : Thai
Service kind : Complete Main
Default : No
Forced : No

Audio #2
ID : 3
Format : AC-3
Format/Info : Audio Coding 3
Format settings, Endianness : Big
Codec ID : A_AC3
Duration : 2 h 17 min
Bit rate mode : Constant
Bit rate : 384 kb/s
Channel(s) : 6 channels
Channel positions : Front: L C R, Side: L R, LFE
Sampling rate : 48.0 kHz
Frame rate : 31.250 FPS (1536 spf)
Bit depth : 16 bits
Compression mode : Lossy
Stream size : 377 MiB (8%)
Title : Valerian.and.the.City.of.a.Thousand.Planets.2017.1080p.WEB-DL.DD5.1.H264
Language : English
Service kind : Complete Main
Default : Yes
Forced : No

Text
ID : 4
Format : UTF-8
Codec ID : S_TEXT/UTF8
Codec ID/Info : UTF-8 Plain Text
Duration : 6 min 33 s
Bit rate : 2 b/s
Count of elements : 6
Stream size : 134 Bytes (0%)
Title : FORCED
Language : English
Default : Yes
Forced : Yes



หมายเหตุ ทุกเว็บโหลดแทนกันได้ แต่ต้องเปลี่ยนชื่อให้เรียงกันด้วย

Cloud2free

สำหรับสมาชิก VIP เท่านั้น!

[restrict …]

|——————————————————————|

|——————————————————————|

[/restrict]

(Visited 4,817 times, 68 visits today)