Home > Mini-HD > [MINI-HD 1080P] Underworld Blood Wars 5 (2016) มหาสงครามล้างพันธุ์อสูร [ThaiRong AC3] [พากย์ไทยโรง] [MKV] [ONE2UP]

[MINI-HD 1080P] Underworld Blood Wars 5 (2016) มหาสงครามล้างพันธุ์อสูร [ThaiRong AC3] [พากย์ไทยโรง] [MKV] [ONE2UP]

[MINI-HD 1080P] Underworld Blood Wars 5 (2016) มหาสงครามล้างพันธุ์อสูร

มหาสงครามล้างพันธุ์อสูรเรื่องราวยังคงดำเนินต่อมา เซลีน นักฆ่าสาวสายพันธ์แวมไพร์ เซลีน แวมไพร์สาวตัวเอกของเรื่อง จะต้องเดินทางเดินทางขึ้นเหนือสู่ดินแดนอันหนาวเย็นเพื่อค้นหาคำตอบบางอย่าง ซึ่งแน่นอนว่าเธอได้นำความอันตรายและผู้ที่ต้องการตามล่าตัวเธอติดตามไปด้วย เราจึงจะได้เห็นฉากการต่อสู้ท่ามกลางหิมะอันดุเดือด ระหว่างแวมไพร์และไลแคน

Underworld.Blood.Wars.20161080p.WEB-DL.DD5.1.ThaiRong AC3.H264[Load2up.com].mkv
Format : Matroska
Format version : Version 4 / Version 2
File size : 3.29 GiB
Duration : 1 h 31 min
Overall bit rate : 5 133 kb/s
Movie name : Underworld.Blood.Wars.2016.1080p.WEB-DL.DD5.1.H264
Encoded date : UTC 2017-02-10 03:54:24
Writing application : mkvmerge v8.5.1 (‘Where you lead I will follow’) 32bit
Writing library : libebml v1.3.3 + libmatroska v1.4.4

Video
ID : 1
Format : AVC
Format/Info : Advanced Video Codec
Format profile : [email protected]
Format settings, CABAC : Yes
Format settings, ReFrames : 5 frames
Codec ID : V_MPEG4/ISO/AVC
Duration : 1 h 31 min
Bit rate : 4 557 kb/s
Width : 1 920 pixels
Height : 796 pixels
Display aspect ratio : 2.40:1
Frame rate mode : Constant
Frame rate : 23.976 (23976/1000) FPS
Color space : YUV
Chroma subsampling : 4:2:0
Bit depth : 8 bits
Scan type : Progressive
Bits/(Pixel*Frame) : 0.124
Stream size : 2.92 GiB (89%)
Title : Underworld.Blood.Wars.2016.1080p.WEB-DL.DD5.1.H264
Language : English
Default : Yes
Forced : No
Color range : Limited
Color primaries : BT.709
Transfer characteristics : BT.709
Matrix coefficients : BT.709

Audio #1
ID : 2
Format : AC-3
Format/Info : Audio Coding 3
Mode extension : CM (complete main)
Format settings, Endianness : Big
Codec ID : A_AC3
Duration : 1 h 31 min
Bit rate mode : Constant
Bit rate : 192 kb/s
Channel(s) : 2 channels
Channel positions : Front: L R
Sampling rate : 48.0 kHz
Frame rate : 31.250 FPS (1536 spf)
Bit depth : 16 bits
Compression mode : Lossy
Stream size : 126 MiB (4%)
Language : Thai
Default : Yes
Forced : No

Audio #2
ID : 3
Format : AC-3
Format/Info : Audio Coding 3
Mode extension : CM (complete main)
Format settings, Endianness : Big
Codec ID : A_AC3
Duration : 1 h 31 min
Bit rate mode : Constant
Bit rate : 384 kb/s
Channel(s) : 6 channels
Channel positions : Front: L C R, Side: L R, LFE
Sampling rate : 48.0 kHz
Frame rate : 31.250 FPS (1536 spf)
Bit depth : 16 bits
Compression mode : Lossy
Stream size : 251 MiB (7%)
Title : Underworld.Blood.Wars.2016.1080p.WEB-DL.DD5.1.H264
Language : English
Default : No
Forced : No



หมายเหตุ ทุกเว็บโหลดแทนกันได้ แต่ต้องเปลี่ยนชื่อให้เรียงกันด้วย

(Visited 4,818 times, 4 visits today)