Home > Master > [MINI-HD 1080P] Train To Busan (2016) ด่วนนรกซอมบี้คลั่ง [พากย์ไทย 5.1 + เสียงเกาหลี DTS] [บรรยายไทย + อังกฤษ] [MASTER] [MKV] [FILEFENIX] [ONE2UP]

[MINI-HD 1080P] Train To Busan (2016) ด่วนนรกซอมบี้คลั่ง [พากย์ไทย 5.1 + เสียงเกาหลี DTS] [บรรยายไทย + อังกฤษ] [MASTER] [MKV] [FILEFENIX] [ONE2UP]

[MINI-HD 1080P] Train To Busan (2016) ด่วนนรกซอมบี้คลั่ง

Train to Busan: เล่าถึงเรื่องราวสุดระทึกเมื่อ ซอกวู (รับบทโดย กงยู) และลูกสาว ซูอา (รับบทโดย อาน คิมซู) กำลังขึ้นขบวนรถไฟเคทีเอ็กซ์ที่จะพาทั้งสองเดินทางจากกรุงโซลไปยังเมืองปูซานเพื่อเยี่ยมภรรยาเก่าที่ไม่ได้พบกันมานาน แต่ทันทีที่รถไฟกำลังจะเคลื่อนออกจากชานชาลา กลับเกิดเหตุการณ์ที่ทำให้ผู้โดยสารทั้งขบวนต้องช็อก เมื่อสถานีรถไฟกลับถูกฝูงซอมบี้โจมตี คร่าชีวิตคนขับรถไฟและผู้โดยสาร รถไฟเคทีเอ็กซ์มุ่งตรงไปยังปูซานโดยไร้คนขับ ผู้โดยสารทั้งหมดต้องหาทางเอาชีวิตรอดจากฝูงซอมบี้ที่กำลังไล่ล่าพวกเขาจากโบกี้สู่โบกี้อย่างไม่ลดละตลอด 90 นาทีของเส้นทางมุ่งหน้าสู่ปูซาน!!!

{MINI Super-HQ}_Train.to.Busan.2016.1080p.BrRip.DTS.x264[Load2up.com].mkv
Format : Matroska
Format version : Version 4 / Version 2
File size : 3.87 GiB
Duration : 1 h 58 min
Overall bit rate : 4 692 kb/s
Movie name : {MINI Super-HQ}_Train.to.Busan.2016.1080p.BrRip.DTS.x264
Encoded date : UTC 2010-02-22 21:41:31
Writing application : mkvmerge v5.9.0 (‘On The Loose’) built on Dec 9 2012 15:37:01
Writing library : libebml v1.3.0 + libmatroska v1.4.0

Video
ID : 1
Format : AVC
Format/Info : Advanced Video Codec
Format profile : [email protected]
Format settings, CABAC : Yes
Format settings, ReFrames : 4 frames
Codec ID : V_MPEG4/ISO/AVC
Duration : 1 h 58 min
Bit rate : 3 435 kb/s
Width : 1 920 pixels
Height : 1 040 pixels
Display aspect ratio : 1.85:1
Frame rate mode : Constant
Frame rate : 23.976 (24000/1001) FPS
Color space : YUV
Chroma subsampling : 4:2:0
Bit depth : 8 bits
Scan type : Progressive
Bits/(Pixel*Frame) : 0.072
Stream size : 2.80 GiB (72%)
Title : {MINI Super-HQ}_Train.to.Busan.2016.1080p.BrRip.DTS.x264
Writing library : x264 core 130 r2273 b3065e6
Language : English
Default : Yes
Forced : No
Color range : Limited
Color primaries : BT.709
Transfer characteristics : BT.709
Matrix coefficients : BT.709

Audio #1
ID : 2
Format : AC-3
Format/Info : Audio Coding 3
Mode extension : CM (complete main)
Format settings, Endianness : Big
Codec ID : A_AC3
Duration : 1 h 58 min
Bit rate mode : Constant
Bit rate : 448 kb/s
Channel(s) : 6 channels
Channel positions : Front: L C R, Side: L R, LFE
Sampling rate : 48.0 kHz
Frame rate : 31.250 FPS (1536 spf)
Bit depth : 16 bits
Compression mode : Lossy
Stream size : 378 MiB (10%)
Title : Thai DVD Master
Language : Thai
Default : Yes
Forced : Yes

Audio #2
ID : 3
Format : DTS
Format/Info : Digital Theater Systems
Mode : 16
Format settings, Endianness : Big
Codec ID : A_DTS
Duration : 1 h 58 min
Bit rate mode : Constant
Bit rate : 755 kb/s
Channel(s) : 6 channels
Channel positions : Front: L C R, Side: L R, LFE
Sampling rate : 48.0 kHz
Frame rate : 93.750 FPS (512 spf)
Bit depth : 24 bits
Compression mode : Lossy
Stream size : 637 MiB (16%)
Title : Korean DTS
Language : Korean
Default : No
Forced : No

Text #1
ID : 4
Format : VobSub
Codec ID : S_VOBSUB
Codec ID/Info : Picture based subtitle format used on DVDs
Title : Thai 480p From DVD Master
Language : Thai
Default : Yes
Forced : No

Text #2
ID : 5
Format : VobSub
Codec ID : S_VOBSUB
Codec ID/Info : Picture based subtitle format used on DVDs
Title : Thai 720p
Language : Thai
Default : No
Forced : No

Text #3
ID : 6
Format : VobSub
Codec ID : S_VOBSUB
Codec ID/Info : Picture based subtitle format used on DVDs
Title : Thai 1080p
Language : Thai
Default : No
Forced : Yes

Text #4
ID : 7
Format : VobSub
Codec ID : S_VOBSUB
Codec ID/Info : Picture based subtitle format used on DVDs
Title : Thai 1080p Yellow
Language : Thai
Default : No
Forced : No

Text #5
ID : 8
Format : VobSub
Codec ID : S_VOBSUB
Codec ID/Info : Picture based subtitle format used on DVDs
Title : Thai 1080p BIG
Language : Thai
Default : No
Forced : No

Text #6
ID : 9
Format : PGS
Codec ID : S_HDMV/PGS
Codec ID/Info : Picture based subtitle format used on BDs/HD-DVDs
Title : Thai PGS
Language : Thai
Default : No
Forced : No

Text #7
ID : 10
Format : PGS
Codec ID : S_HDMV/PGS
Codec ID/Info : Picture based subtitle format used on BDs/HD-DVDs
Title : Thai PGS Yellow
Language : Thai
Default : No
Forced : No

Text #8
ID : 11
Format : UTF-8
Codec ID : S_TEXT/UTF8
Codec ID/Info : UTF-8 Plain Text
Title : English
Language : English
Default : No
Forced : No



หมายเหตุ ทุกเว็บโหลดแทนกันได้ แต่ต้องเปลี่ยนชื่อให้เรียงกันด้วย

สำหรับสมาชิก VIP เท่านั้น!

[restrict …]

cornfile.com

|——————————————————————|

|——————————————————————|

[/restrict]