Home > Mini-HD > [MINI-HD 1080P] The Ruthless (Lo Spietato) (2019) คนใหญ่ต้องโหด [เสียงอิตาเลี่ยน 5.1 + เสียงอังกฤษ 5.1] [บรรยายไทย + อังกฤษ] [Soundtrack บรรยายไทย] [MKV]

[MINI-HD 1080P] The Ruthless (Lo Spietato) (2019) คนใหญ่ต้องโหด [เสียงอิตาเลี่ยน 5.1 + เสียงอังกฤษ 5.1] [บรรยายไทย + อังกฤษ] [Soundtrack บรรยายไทย] [MKV]

[MINI-HD 1080P] The Ruthless (Lo Spietato) (2019) คนใหญ่ต้องโหด

The.Ruthless.2019.1080p.WEB-DL.DDP5.1.x264[Load2up.com].mkv
Format : Matroska
Format version : Version 4
File size : 2.35 GiB
Duration : 1 h 51 min
Overall bit rate mode : Variable
Overall bit rate : 3 015 kb/s
Movie name : ACESSE COMANDOTORRENTS.COM
Encoded date : UTC 2019-04-21 11:43:55
Writing application : mkvmerge v33.1.0 (‘Primrose’) 64-bit
Writing library : libebml v1.3.7 + libmatroska v1.5.0
Attachments : photo.png

Video
ID : 1
Format : AVC
Format/Info : Advanced Video Codec
Format profile : [email protected]
Format settings : CABAC / 4 Ref Frames
Format settings, CABAC : Yes
Format settings, ReFrames : 4 frames
Codec ID : V_MPEG4/ISO/AVC
Duration : 1 h 51 min
Bit rate mode : Variable
Bit rate : 1 733 kb/s
Maximum bit rate : 20.0 Mb/s
Width : 1 920 pixels
Height : 1 080 pixels
Display aspect ratio : 16:9
Frame rate mode : Constant
Frame rate : 25.000 FPS
Color space : YUV
Chroma subsampling : 4:2:0
Bit depth : 8 bits
Scan type : Progressive
Bits/(Pixel*Frame) : 0.033
Stream size : 1.35 GiB (57%)
Writing library : x264 core 148 r2715 7e75228
Default : Yes
Forced : No

Audio #1
ID : 2
Format : E-AC-3
Format/Info : Enhanced AC-3
Commercial name : Dolby Digital Plus
Codec ID : A_EAC3
Duration : 1 h 51 min
Bit rate mode : Constant
Bit rate : 640 kb/s
Channel(s) : 6 channels
Channel layout : L R C LFE Ls Rs
Sampling rate : 48.0 kHz
Frame rate : 31.250 FPS (1536 SPF)
Compression mode : Lossy
Stream size : 510 MiB (21%)
Title : INGLESE 5.1
Language : English
Service kind : Complete Main
Default : Yes
Forced : No

Audio #2
ID : 3
Format : E-AC-3
Format/Info : Enhanced AC-3
Commercial name : Dolby Digital Plus
Codec ID : A_EAC3
Duration : 1 h 51 min
Bit rate mode : Constant
Bit rate : 640 kb/s
Channel(s) : 6 channels
Channel layout : L R C LFE Ls Rs
Sampling rate : 48.0 kHz
Frame rate : 31.250 FPS (1536 SPF)
Compression mode : Lossy
Stream size : 510 MiB (21%)
Title : ITALIANO 5.1
Language : Italian
Service kind : Complete Main
Default : No
Forced : No

Text #1
ID : 4
Format : UTF-8
Codec ID : S_TEXT/UTF8
Codec ID/Info : UTF-8 Plain Text
Duration : 1 h 47 min
Bit rate : 107 b/s
Count of elements : 1266
Stream size : 84.6 KiB (0%)
Language : Thai
Default : Yes
Forced : No

Text #2
ID : 5
Format : UTF-8
Codec ID : S_TEXT/UTF8
Codec ID/Info : UTF-8 Plain Text
Duration : 1 h 47 min
Bit rate : 0 b/s
Count of elements : 26
Stream size : 609 Bytes (0%)
Title : Forced
Language : English
Default : No
Forced : No

Text #3
ID : 6
Format : UTF-8
Codec ID : S_TEXT/UTF8
Codec ID/Info : UTF-8 Plain Text
Duration : 1 h 50 min
Bit rate : 48 b/s
Count of elements : 1265
Stream size : 38.8 KiB (0%)
Title : SDH
Language : English
Default : No
Forced : No



หมายเหตุ ทุกเว็บโหลดแทนกันได้ แต่ต้องเปลี่ยนชื่อให้เรียงกันด้วย

สำหรับสมาชิก VIP เท่านั้น!

[restrict …]

|——————————————————————|

|——————————————————————|

[/restrict]