Home > Mini-HD > [MINI-HD 1080P] The Nutcracker and the Four Realms (2018) เดอะนัทแครกเกอร์กับสี่อาณาจักรมหัศจรรย์ [Soundtrack บรรยายไทย] [MKV]

[MINI-HD 1080P] The Nutcracker and the Four Realms (2018) เดอะนัทแครกเกอร์กับสี่อาณาจักรมหัศจรรย์ [Soundtrack บรรยายไทย] [MKV]

[MINI-HD 1080P] The Nutcracker and the Four Realms (2018) เดอะนัทแครกเกอร์กับสี่อาณาจักรมหัศจรรย์

The.Nutcracker.And.The.Four.Realms.2018[Load2up.com].mkv
Format : Matroska
Format version : Version 4 / Version 2
File size : 1.59 GiB
Duration : 1 h 39 min
Overall bit rate : 2 293 kb/s
Encoded date : UTC 2019-01-25 11:03:50
Writing application : mkvmerge v30.1.0 (‘Forever And More’) 64-bit
Writing library : libebml v1.3.6 + libmatroska v1.4.9

Video
ID : 1
Format : AVC
Format/Info : Advanced Video Codec
Format profile : [email protected]
Format settings, CABAC : Yes
Format settings, RefFrames : 4 frames
Codec ID : V_MPEG4/ISO/AVC
Duration : 1 h 39 min
Bit rate : 2 150 kb/s
Width : 1 920 pixels
Height : 1 040 pixels
Display aspect ratio : 1.85:1
Frame rate mode : Constant
Frame rate : 23.976 (24000/1001) FPS
Color space : YUV
Chroma subsampling : 4:2:0
Bit depth : 8 bits
Scan type : Progressive
Bits/(Pixel*Frame) : 0.045
Stream size : 1.49 GiB (94%)
Writing library : x264 core 157
Default : Yes
Forced : No

Audio
ID : 2
Format : AAC
Format/Info : Advanced Audio Codec
Format profile : LC
Codec ID : A_AAC
Duration : 1 h 39 min
Bit rate : 141 kb/s
Channel(s) : 2 channels
Channel positions : Front: L R
Sampling rate : 48.0 kHz
Frame rate : 46.875 FPS (1024 SPF)
Compression mode : Lossy
Delay relative to video : -43 ms
Stream size : 99.8 MiB (6%)
Default : Yes
Forced : No

Text
ID : 3
Format : UTF-8
Codec ID : S_TEXT/UTF8
Codec ID/Info : UTF-8 Plain Text
Duration : 1 h 26 min
Bit rate : 125 b/s
Count of elements : 1299
Stream size : 79.6 KiB (0%)
Language : Thai
Default : Yes
Forced : No



หมายเหตุ ทุกเว็บโหลดแทนกันได้ แต่ต้องเปลี่ยนชื่อให้เรียงกันด้วย

สำหรับสมาชิก VIP เท่านั้น!

[restrict …]

|——————————————————————|

|——————————————————————|

[/restrict]