Home > Mini-HD > [MINI-HD 1080P] The Kid Who Would Be King (2019) หนุ่มน้อยสู่จอมราชันย์ [พากย์ไทยโรง 2.0 + เสียงอังกฤษ 2.0] [บรรยายเกาหลีฝัง] [MKV] [ONE2UP]

[MINI-HD 1080P] The Kid Who Would Be King (2019) หนุ่มน้อยสู่จอมราชันย์ [พากย์ไทยโรง 2.0 + เสียงอังกฤษ 2.0] [บรรยายเกาหลีฝัง] [MKV] [ONE2UP]

[MINI-HD 1080P] The Kid Who Would Be King (2019) หนุ่มน้อยสู่จอมราชันย์

The.Kid.Who.Would.Be.King.2019.1080p.KORSUB.HDRip.x264[Load2up.com].mkv
Format : Matroska
Format version : Version 4
File size : 3.85 GiB
Duration : 2 h 0 min
Overall bit rate : 4 587 kb/s
Movie name : The.Kid.Who.Would.Be.King.2019.1080p.KORSUB.HDRip.x264
Encoded date : UTC 2019-03-25 03:04:20
Writing application : mkvmerge v25.0.0 (‘Prog Noir’) 64-bit
Writing library : libebml v1.3.6 + libmatroska v1.4.9

Video
ID : 1
Format : AVC
Format/Info : Advanced Video Codec
Format profile : [email protected]
Format settings : CABAC / 1 Ref Frames
Format settings, CABAC : Yes
Format settings, ReFrames : 1 frame
Format settings, GOP : M=1, N=38
Muxing mode : Container [email protected]
Codec ID : V_MPEG4/ISO/AVC
Duration : 2 h 0 min
Bit rate mode : Constant
Bit rate : 4 096 kb/s
Width : 1 920 pixels
Height : 1 080 pixels
Display aspect ratio : 16:9
Frame rate mode : Variable
Frame rate : 19.000 FPS
Color space : YUV
Chroma subsampling : 4:2:0
Bit depth : 8 bits
Scan type : Progressive
Bits/(Pixel*Frame) : 0.104
Stream size : 3.42 GiB (89%)
Title : The.Kid.Who.Would.Be.King.2019.1080p.KORSUB.HDRip.x264
Language : English
Default : Yes
Forced : No
Color range : Limited
Color primaries : BT.709
Transfer characteristics : sRGB/sYCC
Matrix coefficients : BT.709

Audio #1
ID : 2
Format : AC-3
Format/Info : Audio Coding 3
Commercial name : Dolby Digital
Codec ID : A_AC3
Duration : 2 h 0 min
Bit rate mode : Constant
Bit rate : 384 kb/s
Channel(s) : 2 channels
Channel layout : L R
Sampling rate : 48.0 kHz
Frame rate : 31.250 FPS (1536 SPF)
Bit depth : 16 bits
Compression mode : Lossy
Stream size : 330 MiB (8%)
Title : ThaiRong 2.0 @ 384 kb/s
Language : Thai
Service kind : Complete Main
Default : Yes
Forced : Yes

Audio #2
ID : 3
Format : AAC LC
Format/Info : Advanced Audio Codec Low Complexity
Codec ID : A_AAC-2
Duration : 2 h 0 min
Bit rate : 128 kb/s
Channel(s) : 2 channels
Channel layout : L R
Sampling rate : 48.0 kHz
Frame rate : 46.875 FPS (1024 SPF)
Compression mode : Lossy
Stream size : 110 MiB (3%)
Title : English @ 128 kb/s
Language : English
Default : No
Forced : No



หมายเหตุ ทุกเว็บโหลดแทนกันได้ แต่ต้องเปลี่ยนชื่อให้เรียงกันด้วย

สำหรับสมาชิก VIP เท่านั้น!

[restrict …]

|——————————————————————|

|——————————————————————|

[/restrict]