Home > Master > [MINI-HD 1080P] The Hurt Locker (2008) หน่วยระห่ำ ปลดล็อคระเบิดโลก [เสียงไทยมาสเตอร์ 5.1 + ENG DTS] [บรรยายไทย+อังกฤษ] [MASTER] [MKV]

[MINI-HD 1080P] The Hurt Locker (2008) หน่วยระห่ำ ปลดล็อคระเบิดโลก [เสียงไทยมาสเตอร์ 5.1 + ENG DTS] [บรรยายไทย+อังกฤษ] [MASTER] [MKV]

[MINI-HD 1080P] The Hurt Locker (2008) หน่วยระห่ำ ปลดล็อคระเบิดโลก

The.Hurt.Locker.2008.1080p.x264.DTS51-ENG.Dolby51[Load2up.com].mkv
Format : Matroska
Format version : Version 4 / Version 2
File size : 4.33 GiB
Duration : 2 h 10 min
Overall bit rate : 4 742 kb/s
Movie name : The.Hurt.Locker.2008.1080p.x264.DTS51-ENG.Dolby51-THA
Encoded date : UTC 2015-08-25 18:45:14
Writing application : mkvmerge v8.3.0 (‘Over the Horizon’) 64bit
Writing library : libebml v1.3.1 + libmatroska v1.4.2

Video
ID : 1
Format : AVC
Format/Info : Advanced Video Codec
Format profile : [email protected]
Format settings, CABAC : Yes
Format settings, RefFrames : 16 frames
Codec ID : V_MPEG4/ISO/AVC
Duration : 2 h 10 min
Bit rate : 3 550 kb/s
Width : 1 920 pixels
Height : 1 080 pixels
Display aspect ratio : 16:9
Frame rate mode : Constant
Frame rate : 23.976 (24000/1001) FPS
Color space : YUV
Chroma subsampling : 4:2:0
Bit depth : 8 bits
Scan type : Progressive
Bits/(Pixel*Frame) : 0.071
Stream size : 3.24 GiB (75%)
Title : AVC_L51
Writing library : x264 core 142 r2431+42 c69a006 tMod
Language : English
Default : Yes
Forced : No

Audio #1
ID : 2
Format : AC-3
Format/Info : Audio Coding 3
Format settings, Endianness : Big
Codec ID : A_AC3
Duration : 2 h 10 min
Bit rate mode : Constant
Bit rate : 384 kb/s
Channel(s) : 6 channels
Channel positions : Front: L C R, Side: L R, LFE
Sampling rate : 48.0 kHz
Frame rate : 31.250 FPS (1536 SPF)
Bit depth : 16 bits
Compression mode : Lossy
Stream size : 359 MiB (8%)
Title : Thai Dolby AC3 48KHz 6ch
Language : Thai
Service kind : Complete Main
Default : Yes
Forced : Yes

Audio #2
ID : 3
Format : DTS
Format/Info : Digital Theater Systems
Mode : 16
Format settings, Endianness : Big
Codec ID : A_DTS
Duration : 2 h 10 min
Bit rate mode : Constant
Bit rate : 755 kb/s
Channel(s) : 6 channels
Channel positions : Front: L C R, Side: L R, LFE
Sampling rate : 48.0 kHz
Frame rate : 93.750 FPS (512 SPF)
Bit depth : 24 bits
Compression mode : Lossy
Stream size : 705 MiB (16%)
Title : English DTS 48KHz 6ch
Language : English
Default : No
Forced : No

Text #1
ID : 4
Format : VobSub
Codec ID : S_VOBSUB
Codec ID/Info : Picture based subtitle format used on DVDs
Duration : 2 h 6 min
Bit rate : 1 520 b/s
Count of elements : 1408
Stream size : 1.37 MiB (0%)
Title : THA VOBSUB 480 – JINDARA
Language : Thai
Default : No
Forced : No

Text #2
ID : 5
Format : VobSub
Codec ID : S_VOBSUB
Codec ID/Info : Picture based subtitle format used on DVDs
Duration : 2 h 6 min
Bit rate : 6 357 b/s
Count of elements : 1408
Stream size : 5.74 MiB (0%)
Title : THA VOBSUB 1080 – JINDARA
Language : Thai
Default : No
Forced : No

Text #3
ID : 6
Format : PGS
Codec ID : S_HDMV/PGS
Codec ID/Info : Picture based subtitle format used on BDs/HD-DVDs
Duration : 2 h 6 min
Bit rate : 23.1 kb/s
Count of elements : 2816
Stream size : 20.8 MiB (0%)
Title : THA HDMV/PGS – JINDARA
Language : Thai
Default : No
Forced : No

Text #4
ID : 7
Format : PGS
Codec ID : S_HDMV/PGS
Codec ID/Info : Picture based subtitle format used on BDs/HD-DVDs
Duration : 2 h 6 min
Bit rate : 24.0 kb/s
Count of elements : 2816
Stream size : 21.7 MiB (0%)
Title : THA HDMV/PGS – HANUMAN
Language : Thai
Default : No
Forced : No

Text #5
ID : 8
Format : UTF-8
Codec ID : S_TEXT/UTF8
Codec ID/Info : UTF-8 Plain Text
Duration : 2 h 5 min
Bit rate : 48 b/s
Count of elements : 1216
Stream size : 44.7 KiB (0%)
Title : ENG SRT
Language : English
Default : No
Forced : No



หมายเหตุ ทุกเว็บโหลดแทนกันได้ แต่ต้องเปลี่ยนชื่อให้เรียงกันด้วย

สำหรับสมาชิก VIP เท่านั้น!

[restrict …]

|——————————————————————|

|——————————————————————|

[/restrict]