Home > Mini-HD > [MINI-HD 1080P] Tale of Tales (2015) ตำนานนิทานทมิฬ [Soundtrack บรรยายไทย] [MKV] [FILEFENIX] [ONE2UP]

[MINI-HD 1080P] Tale of Tales (2015) ตำนานนิทานทมิฬ [Soundtrack บรรยายไทย] [MKV] [FILEFENIX] [ONE2UP]

[MINI-HD 1080P] Tale of Tales (2015) ตำนานนิทานทมิฬ

Tale of Tales หยิบยกเอานิทานพื้นบ้าน 3 เรื่องจากหนังสือ Pentamerone (นิทานห้าวัน) วรรณกรรมโบราณโดย ในศตวรรษที่ 17 มาดัดแปลง ที่แฝงไปด้วยความโหดร้าย และเนื้อหาหมิ่นเหม่ศีลธรรม ซึ่งตัวหนังสือเล่มนี้ก็เปรียบเสมือนต้นธารให้กับเทพนิยายยุโรปมากมายหลายเรื่อง รวมไปถึงนิทานกริมส์

ความน่าสนใจของภาพยนตร์เรื่องนี้ ผู้กำกับ Matteo Garrone เลือกที่จะเล่านิทานทั้ง 3 เรื่อง พร้อมกัน แทนที่จะแยกย่อยให้จบในตอนของใครของมัน ทั้งนี้เพื่อให้คนดูได้สัมผัสถึงมนตร์เสน่ห์แห่งอภินิหารที่เรียงร้อยเข้าด้วยกัน เห็นภาพรวมของค่านิยมที่แฝงในนิทานพื้นบ้านโบราณ รวมถึงแก่นสาส์นของเรื่องทั้ง 3 ที่คัดสรรมา ซึ่งต่างเกาะเกี่ยวกันภายใต้คำว่า “ลุ่มหลง” ทั้งลุ่มหลงรูปกาย กิเลส สังขาร แน่นอนว่าภาพยนตร์เรื่องนี้ไม่ใช่นิทานพาฝันที่เหมาะกับเด็ก เพราะมันอุดมไปด้วยเลือด เซ็กซ์ ความรุนแรง ที่อาจเป็นสิ่งสามัญที่ใช้เล่าขานเมื่อครั้นบรรพกาล หากกลับแสลงแปลกประหลาดแก่เยาวชนปัจจุบัน

Tale.of.Tales.2015.1080p.HQ.DTS.x264.SUBTH[Load2up.com].mkv
Format : Matroska
Format version : Version 4 / Version 2
File size : 3.86 GiB
Duration : 2 h 13 min
Overall bit rate : 4 134 kb/s
Movie name : Tale.of.Tales.2015.1080p.HQ.DTS.x264.SUBTH[Load2up.com] Encoded date : UTC 2016-11-23 17:05:00
Writing application : mkvmerge v9.5.0 (‘Quiet Fire’) 32bit
Writing library : libebml v1.3.4 + libmatroska v1.4.5

Video
ID : 1
Format : AVC
Format/Info : Advanced Video Codec
Format profile : [email protected]
Format settings, CABAC : Yes
Format settings, ReFrames : 4 frames
Codec ID : V_MPEG4/ISO/AVC
Duration : 2 h 13 min
Bit rate : 2 958 kb/s
Width : 1 920 pixels
Height : 816 pixels
Display aspect ratio : 2.35:1
Frame rate mode : Constant
Frame rate : 24.000 FPS
Color space : YUV
Chroma subsampling : 4:2:0
Bit depth : 8 bits
Scan type : Progressive
Bits/(Pixel*Frame) : 0.079
Stream size : 2.72 GiB (70%)
Title : Tale.of.Tales.2015.1080p.HQ.DTS.x264.SUBTH
Writing library : x264 core 146 r2538 121396c
Language : English
Default : Yes
Forced : Yes

Audio #1
ID : 2
Format : DTS
Format/Info : Digital Theater Systems
Mode : 16
Format settings, Endianness : Big
Codec ID : A_DTS
Duration : 2 h 13 min
Bit rate mode : Constant
Bit rate : 755 kb/s
Channel(s) : 6 channels
Channel positions : Front: L C R, Side: L R, LFE
Sampling rate : 48.0 kHz
Frame rate : 93.750 FPS (512 spf)
Bit depth : 24 bits
Compression mode : Lossy
Stream size : 722 MiB (18%)
Title : EN DTS
Language : English
Default : Yes
Forced : Yes

Audio #2
ID : 3
Format : AC-3
Format/Info : Audio Coding 3
Mode extension : CM (complete main)
Format settings, Endianness : Big
Codec ID : A_AC3
Duration : 2 h 13 min
Bit rate mode : Constant
Bit rate : 384 kb/s
Channel(s) : 6 channels
Channel positions : Front: L C R, Side: L R, LFE
Sampling rate : 48.0 kHz
Frame rate : 31.250 FPS (1536 spf)
Compression mode : Lossy
Stream size : 367 MiB (9%)
Title : EN AC3
Language : Thai
Default : No
Forced : No

Text #1
ID : 4
Format : VobSub
Codec ID : S_VOBSUB
Codec ID/Info : Picture based subtitle format used on DVDs
Title : TH 1080P
Language : Thai
Default : No
Forced : No

Text #2
ID : 5
Format : VobSub
Codec ID : S_VOBSUB
Codec ID/Info : Picture based subtitle format used on DVDs
Title : TH 1080P YELLOW
Language : Thai
Default : No
Forced : No

Text #3
ID : 6
Format : VobSub
Codec ID : S_VOBSUB
Codec ID/Info : Picture based subtitle format used on DVDs
Title : TH 1080P UNDER
Language : Thai
Default : No
Forced : No

Text #4
ID : 7
Format : VobSub
Codec ID : S_VOBSUB
Codec ID/Info : Picture based subtitle format used on DVDs
Title : TH 480P
Language : Thai
Default : No
Forced : No

Text #5
ID : 8
Format : UTF-8
Codec ID : S_TEXT/UTF8
Codec ID/Info : UTF-8 Plain Text
Title : TH SRT
Language : Thai
Default : No
Forced : No

Text #6
ID : 9
Format : UTF-8
Codec ID : S_TEXT/UTF8
Codec ID/Info : UTF-8 Plain Text
Title : EN SRT
Language : English
Default : No
Forced : No

Text #7
ID : 10
Format : PGS
Codec ID : S_HDMV/PGS
Codec ID/Info : Picture based subtitle format used on BDs/HD-DVDs
Title : TH DN
Language : Thai
Default : Yes
Forced : Yes

Text #8
ID : 11
Format : PGS
Codec ID : S_HDMV/PGS
Codec ID/Info : Picture based subtitle format used on BDs/HD-DVDs
Title : TH DN UNDER
Language : Thai
Default : No
Forced : No



หมายเหตุ ทุกเว็บโหลดแทนกันได้ แต่ต้องเปลี่ยนชื่อให้เรียงกันด้วย