Home > Master > [MINI-HD 1080p SuperHQ] Wine War (2017) สงครามกลลวง [พากย์ไทย 5.1 + เสียงจีน DTS] [บรรยายไทย + อังกฤษ] [MASTER] [MKV] [ONE2UP]

[MINI-HD 1080p SuperHQ] Wine War (2017) สงครามกลลวง [พากย์ไทย 5.1 + เสียงจีน DTS] [บรรยายไทย + อังกฤษ] [MASTER] [MKV] [ONE2UP]

[MINI-HD 1080p SuperHQ] Wine War (2017) สงครามกลลวง

Wine War / สงครามกลลวง” เล่าเรื่องราวของ สุ่ยหยาง (จางฮั่นหยู) และ วัลลีย์ (หลี่หมิง) เป็นเพื่อน
ที่เติบโตขึ้นมาด้วยกันในสถานเลี้ยงเด็กกำพร้า ต่อมา วัลลีย์ ถูกคู่รักชาวฝรั่งเศสรับมาอยู่ด้วยกันที่ปารีส เมื่อโตขึ้นเขากลายมาเป็นนักโภชนาการที่เก่งหาตัวจับ ยากในขณะที่ สุ่ยหยาง กลับเป็นคนที่ใช้ชีวิตแบบไร้แก่นสารไปวัน ๆ จนกระทั่งวันหนึ่งเมื่อ สุ่ยหยาง โทรไปขอความช่วยเหลือจากวัลลีย์เพื่อให้ช่วยประมูลไวน์แดงที่มีชื่อว่า The God of Wine ซึ่งว่ากันว่าเป็นสูตรที่ช่วยในการกระตุ้นกล้ามเนื้อ ของหัวใจและทำให้เขาได้พบกับ ยอนเน่ ตัวแทนฝ่ายขายคนสวยผู้ทำให้เขาตกหลุมรักเธอเข้าอย่าง จัง เมื่อนั้นจุดเริ่มต้นของความน่าสงสัยก็ก่อตัวขึ้นไปพร้อมๆ กับความลึกลับที่ทวีตัวขึ้นทุกขณะ และที่สำคัญก็คือ มันไม่ได้เกี่ยวข้องกับการประมูลไวน์เลยแม้แต่นิดเดียว!!!
.
มันเป็นสงครามภายใต้แผนการอันแยบยล จุดเริ่มต้นของความน่าสงสัยก็ก่อตัวขึ้นไปพร้อม ๆ กับความลึกลับที่ทวีตัวขึ้นทุกขณะ “Wine War / สงครามกลลวง”
กำกับและควบแสดงนำโดย หลี่หมิง (จาก Comrades, Almost A Love Story เถียนมีมี่ 3,650 วันรักเธอคนเดียว, City of Glass มากกว่าคำว่ารัก, Infernal Affairs 2 คน 2 คมและล่าสุดจาก The Secret รักเร้นลับ) และ จางฮั่นหยู (จาก Operation Mekong เชือด เดือด ระอุ และ The Great Wall เดอะ เกรท วอลล์)!!!

{MINI Super-HQ}_Wine.War.2017.1080p.BrRip.DTS.x264[Load2up.com].mkv
Format : Matroska
Format version : Version 4 / Version 2
File size : 3.94 GiB
Duration : 1 h 30 min
Overall bit rate : 6 258 kb/s
Movie name : {MINI Super-HQ}_Wine.War.2017.1080p.BrRip.DTS.x264
Encoded date : UTC 2010-02-22 21:41:31
Writing application : mkvmerge v5.9.0 (‘On The Loose’) built on Dec 9 2012 15:37:01
Writing library : libebml v1.3.0 + libmatroska v1.4.0

Video
ID : 1
Format : AVC
Format/Info : Advanced Video Codec
Format profile : [email protected]
Format settings, CABAC : Yes
Format settings, ReFrames : 4 frames
Codec ID : V_MPEG4/ISO/AVC
Duration : 1 h 30 min
Bit rate : 4 849 kb/s
Width : 1 920 pixels
Height : 808 pixels
Display aspect ratio : 2.40:1
Frame rate mode : Constant
Frame rate : 24.000 FPS
Color space : YUV
Chroma subsampling : 4:2:0
Bit depth : 8 bits
Scan type : Progressive
Bits/(Pixel*Frame) : 0.130
Stream size : 3.10 GiB (79%)
Title : {MINI Super-HQ}_Wine.War.2017.1080p.BrRip.DTS.x264
Writing library : x264 core 130 r2273 b3065e6
Language : Chinese
Default : Yes
Forced : No
Color range : Limited
Color primaries : BT.709
Transfer characteristics : BT.709
Matrix coefficients : BT.709

Audio #1
ID : 2
Format : AC-3
Format/Info : Audio Coding 3
Format settings, Endianness : Big
Codec ID : A_AC3
Duration : 1 h 30 min
Bit rate mode : Constant
Bit rate : 448 kb/s
Channel(s) : 6 channels
Channel positions : Front: L C R, Side: L R, LFE
Sampling rate : 48.0 kHz
Frame rate : 31.250 FPS (1536 spf)
Bit depth : 16 bits
Compression mode : Lossy
Stream size : 289 MiB (7%)
Title : Thai DVD Master
Language : Thai
Service kind : Complete Main
Default : Yes
Forced : Yes

Audio #2
ID : 3
Format : DTS
Format/Info : Digital Theater Systems
Mode : 16
Format settings, Endianness : Big
Codec ID : A_DTS
Duration : 1 h 30 min
Bit rate mode : Constant
Bit rate : 755 kb/s
Channel(s) : 6 channels
Channel positions : Front: L C R, Side: L R, LFE
Sampling rate : 48.0 kHz
Frame rate : 93.750 FPS (512 spf)
Bit depth : 24 bits
Compression mode : Lossy
Delay relative to video : 2 s 0 ms
Stream size : 486 MiB (12%)
Title : Chinese DTS
Language : Chinese
Default : No
Forced : No

Text #1
ID : 4
Format : VobSub
Codec ID : S_VOBSUB
Codec ID/Info : Picture based subtitle format used on DVDs
Title : Thai 480p From DVD Master
Language : Thai
Default : No
Forced : No

Text #2
ID : 5
Format : VobSub
Codec ID : S_VOBSUB
Codec ID/Info : Picture based subtitle format used on DVDs
Title : Thai 720p
Language : Thai
Default : No
Forced : No

Text #3
ID : 6
Format : VobSub
Codec ID : S_VOBSUB
Codec ID/Info : Picture based subtitle format used on DVDs
Title : Thai 1080p
Language : Thai
Default : Yes
Forced : Yes

Text #4
ID : 7
Format : VobSub
Codec ID : S_VOBSUB
Codec ID/Info : Picture based subtitle format used on DVDs
Title : Thai 1080p Yellow
Language : Thai
Default : No
Forced : No

Text #5
ID : 8
Format : VobSub
Codec ID : S_VOBSUB
Codec ID/Info : Picture based subtitle format used on DVDs
Title : Thai 1080p Out
Language : Thai
Default : No
Forced : No

Text #6
ID : 9
Format : VobSub
Codec ID : S_VOBSUB
Codec ID/Info : Picture based subtitle format used on DVDs
Title : Thai 1080p BIG
Language : Thai
Default : No
Forced : No

Text #7
ID : 10
Format : VobSub
Codec ID : S_VOBSUB
Codec ID/Info : Picture based subtitle format used on DVDs
Title : Thai 1080p Out [BIG] Language : Thai
Default : No
Forced : No

Text #8
ID : 11
Format : PGS
Codec ID : S_HDMV/PGS
Codec ID/Info : Picture based subtitle format used on BDs/HD-DVDs
Title : Thai PGS
Language : Thai
Default : No
Forced : No

Text #9
ID : 12
Format : PGS
Codec ID : S_HDMV/PGS
Codec ID/Info : Picture based subtitle format used on BDs/HD-DVDs
Title : Thai PGS Yellow
Language : Thai
Default : No
Forced : No

Text #10
ID : 13
Format : PGS
Codec ID : S_HDMV/PGS
Codec ID/Info : Picture based subtitle format used on BDs/HD-DVDs
Title : Thai PGS Out
Language : Thai
Default : No
Forced : No

Text #11
ID : 14
Format : PGS
Codec ID : S_HDMV/PGS
Codec ID/Info : Picture based subtitle format used on BDs/HD-DVDs
Title : English
Language : English
Default : No
Forced : No



หมายเหตุ ทุกเว็บโหลดแทนกันได้ แต่ต้องเปลี่ยนชื่อให้เรียงกันด้วย

สำหรับสมาชิก VIP เท่านั้น!

[restrict …]

|——————————————————————|

|——————————————————————|

[/restrict]