Home > Mini-HD > [MINI-HD 1080P] Sully (2016) ซัลลี่ ปาฎิหาริย์ที่แม่น้ำฮัดสัน [พากย์ไทย 5.1 + เสียงอังกฤษ DTS 5.1] [บรรยายไทย + อังกฤษ] [MKV] [FILEFENIX] [ONE2UP]

[MINI-HD 1080P] Sully (2016) ซัลลี่ ปาฎิหาริย์ที่แม่น้ำฮัดสัน [พากย์ไทย 5.1 + เสียงอังกฤษ DTS 5.1] [บรรยายไทย + อังกฤษ] [MKV] [FILEFENIX] [ONE2UP]

[MINI-HD 1080P] Sully (2016) ซัลลี่ ปาฎิหาริย์ที่แม่น้ำฮัดสัน

Sully – ซัลลี่ ปาฏิหาริย์ที่แม่น้ำฮัดสัน ที่สร้างขึ้นจากเหตุการณ์จริงกับเรื่องราวของ กัปตัน เชสลีย์ บี. “ซัลลี่” ซัลเลนเบอร์เกอร์ (รับบทโดย ทอม แฮงค์ส) ที่เคยสร้างปาฏิหาริย์ในการนำเครื่องบิน US Airways ไฟท์ 1549 ลงจอดกลางแม่น้ำฮัตสันหลังจากเกิดเหตุการณ์ที่ไม่คาดฝันเมื่อเครื่องบินลำนั้นต้องปะทะกับฝูงนกอย่างรุนแรงจนทำให้เครื่องขัดข้องเมื่อปี 2009 การตัดสินใจของเขาทำให้ผู้โดยสาร 155 ชีวิตพร้อมกับลูกเรือทั้งลำปลอดภัยจากอุบัติเหตุครั้งนั้น

Sully.2016.1080p.BluRay.x264.DTS[Load2up.com].mkv
Format : Matroska
Format version : Version 4 / Version 2
File size : 2.78 GiB
Duration : 1 h 35 min
Overall bit rate : 4 149 kb/s
Movie name : Sully.2016.1080p.BluRay.x264.DTS
Encoded date : UTC 2016-12-19 09:49:47
Writing application : mkvmerge v9.2.0 (‘Photograph’) 64bit
Writing library : libebml v1.3.3 + libmatroska v1.4.4

Video
ID : 1
Format : AVC
Format/Info : Advanced Video Codec
Format profile : [email protected]
Format settings, CABAC : Yes
Format settings, ReFrames : 5 frames
Codec ID : V_MPEG4/ISO/AVC
Duration : 1 h 35 min
Bit rate : 2 850 kb/s
Width : 1 920 pixels
Height : 808 pixels
Display aspect ratio : 2.40:1
Frame rate mode : Constant
Frame rate : 23.976 (24000/1001) FPS
Color space : YUV
Chroma subsampling : 4:2:0
Bit depth : 8 bits
Scan type : Progressive
Bits/(Pixel*Frame) : 0.077
Stream size : 1.91 GiB (69%)
Title : Sully.2016.1080p.BluRay.x264.DTS
Writing library : x264 core 148 r2638 7599210
Language : English
Default : Yes
Forced : No

Audio #1
ID : 2
Format : AC-3
Format/Info : Audio Coding 3
Mode extension : CM (complete main)
Format settings, Endianness : Big
Codec ID : A_AC3
Duration : 1 h 35 min
Bit rate mode : Constant
Bit rate : 448 kb/s
Channel(s) : 6 channels
Channel positions : Front: L C R, Side: L R, LFE
Sampling rate : 48.0 kHz
Frame rate : 31.250 FPS (1536 spf)
Bit depth : 16 bits
Compression mode : Lossy
Stream size : 307 MiB (11%)
Title : AC3 5.1 BluRay Master
Language : Thai
Default : Yes
Forced : No

Audio #2
ID : 3
Format : DTS
Format/Info : Digital Theater Systems
Mode : 16
Format settings, Endianness : Big
Codec ID : A_DTS
Duration : 1 h 35 min
Bit rate mode : Constant
Bit rate : 755 kb/s
Channel(s) : 6 channels
Channel positions : Front: L C R, Side: L R, LFE
Sampling rate : 48.0 kHz
Frame rate : 93.750 FPS (512 spf)
Bit depth : 24 bits
Compression mode : Lossy
Stream size : 517 MiB (18%)
Title : DTS 5.1 BluRay Master
Language : English
Default : No
Forced : No

Text #1
ID : 4
Format : VobSub
Muxing mode : zlib
Codec ID : S_VOBSUB
Codec ID/Info : Picture based subtitle format used on DVDs
Duration : 1 h 35 min
Bit rate : 8 650 b/s
Count of elements : 1530
Stream size : 5.92 MiB (0%)
Title : 1080p
Language : Thai
Default : Yes
Forced : No

Text #2
ID : 5
Format : VobSub
Muxing mode : zlib
Codec ID : S_VOBSUB
Codec ID/Info : Picture based subtitle format used on DVDs
Duration : 1 h 35 min
Bit rate : 8 651 b/s
Count of elements : 1530
Stream size : 5.92 MiB (0%)
Title : 1080p Yellow
Language : Thai
Default : No
Forced : No

Text #3
ID : 6
Format : VobSub
Muxing mode : zlib
Codec ID : S_VOBSUB
Codec ID/Info : Picture based subtitle format used on DVDs
Duration : 1 h 35 min
Bit rate : 5 194 b/s
Count of elements : 1530
Stream size : 3.56 MiB (0%)
Title : 720p
Language : Thai
Default : No
Forced : No

Text #4
ID : 7
Format : VobSub
Muxing mode : zlib
Codec ID : S_VOBSUB
Codec ID/Info : Picture based subtitle format used on DVDs
Duration : 1 h 35 min
Bit rate : 3 063 b/s
Count of elements : 1530
Stream size : 2.10 MiB (0%)
Title : 480p
Language : Thai
Default : No
Forced : No

Text #5
ID : 8
Format : PGS
Muxing mode : zlib
Codec ID : S_HDMV/PGS
Codec ID/Info : Picture based subtitle format used on BDs/HD-DVDs
Duration : 1 h 35 min
Bit rate : 31.3 kb/s
Count of elements : 3060
Stream size : 21.4 MiB (1%)
Title : PGS BluRay Master
Language : Thai
Default : No
Forced : No

Text #6
ID : 9
Format : PGS
Muxing mode : zlib
Codec ID : S_HDMV/PGS
Codec ID/Info : Picture based subtitle format used on BDs/HD-DVDs
Duration : 1 h 35 min
Bit rate : 36.0 kb/s
Count of elements : 3060
Stream size : 24.7 MiB (1%)
Title : PGS Under
Language : Thai
Default : No
Forced : No

Text #7
ID : 10
Format : UTF-8
Codec ID : S_TEXT/UTF8
Codec ID/Info : UTF-8 Plain Text
Duration : 1 h 35 min
Bit rate : 73 b/s
Count of elements : 1537
Stream size : 51.7 KiB (0%)
Title : SRT
Language : English
Default : No
Forced : No



หมายเหตุ ทุกเว็บโหลดแทนกันได้ แต่ต้องเปลี่ยนชื่อให้เรียงกันด้วย