Home > Mini-HD > [MINI-HD 1080P] A Wrinkle in Time (2018) ย่นเวลาทะลุมิติ [เสียงอังกฤษ 5.1] [บรรยายไทย + บรรยายอังกฤษ] [MKV] [ONE2UP]

[MINI-HD 1080P] A Wrinkle in Time (2018) ย่นเวลาทะลุมิติ [เสียงอังกฤษ 5.1] [บรรยายไทย + บรรยายอังกฤษ] [MKV] [ONE2UP]

[MINI-HD 1080P] A Wrinkle in Time (2018) ย่นเวลาทะลุมิติ

A.Wrinkle.in.Time.2018.1080p.BluRay.H264.AAC[Load2up.com].mkv
Format : Matroska
Format version : Version 4 / Version 2
File size : 2.10 GiB
Duration : 1 h 49 min
Overall bit rate : 2 746 kb/s
Encoded date : UTC 2018-06-25 09:13:04
Writing application : mkvmerge v23.0.0 (‘The Bride Said No’) 64-bit
Writing library : libebml v1.3.6 + libmatroska v1.4.9

Video
ID : 1
Format : AVC
Format/Info : Advanced Video Codec
Format profile : [email protected]
Format settings, CABAC : Yes
Format settings, ReFrames : 4 frames
Codec ID : V_MPEG4/ISO/AVC
Duration : 1 h 49 min
Bit rate : 2 500 kb/s
Width : 1 920 pixels
Height : 808 pixels
Display aspect ratio : 2.40:1
Frame rate mode : Constant
Frame rate : 23.976 (23976/1000) FPS
Color space : YUV
Chroma subsampling : 4:2:0
Bit depth : 8 bits
Scan type : Progressive
Bits/(Pixel*Frame) : 0.067
Stream size : 1.91 GiB (91%)
Title : A.Wrinkle.in.Time.2018.1080p.BluRay.H264.AAC
Writing library : x264 core 152 r2851M ba24899
Default : Yes
Forced : No

Audio
ID : 2
Format : AAC
Format/Info : Advanced Audio Codec
Format profile : LC
Codec ID : A_AAC
Duration : 1 h 49 min
Bit rate : 224 kb/s
Channel(s) : 6 channels
Channel positions : Front: L C R, Side: L R, LFE
Sampling rate : 48.0 kHz
Frame rate : 46.875 FPS (1024 spf)
Compression mode : Lossy
Delay relative to video : -43 ms
Stream size : 176 MiB (8%)
Title : English 5.1
Language : English
Default : Yes
Forced : No

Text #1
ID : 3
Format : VobSub
Muxing mode : zlib
Codec ID : S_VOBSUB
Codec ID/Info : Picture based subtitle format used on DVDs
Duration : 1 h 38 min
Bit rate : 6 834 b/s
Count of elements : 1064
Stream size : 4.82 MiB (0%)
Title : Thai
Language : Thai
Default : Yes
Forced : No

Text #2
ID : 4
Format : VobSub
Muxing mode : zlib
Codec ID : S_VOBSUB
Codec ID/Info : Picture based subtitle format used on DVDs
Duration : 1 h 38 min
Bit rate : 6 861 b/s
Count of elements : 1064
Stream size : 4.83 MiB (0%)
Title : Thai Yellow
Language : Thai
Default : No
Forced : No

Text #3
ID : 5
Format : VobSub
Muxing mode : zlib
Codec ID : S_VOBSUB
Codec ID/Info : Picture based subtitle format used on DVDs
Duration : 1 h 47 min
Bit rate : 20.1 kb/s
Count of elements : 2136
Stream size : 15.4 MiB (1%)
Title : English
Language : English
Default : No
Forced : No



หมายเหตุ ทุกเว็บโหลดแทนกันได้ แต่ต้องเปลี่ยนชื่อให้เรียงกันด้วย

สำหรับสมาชิก VIP เท่านั้น!

[restrict …]

|——————————————————————|

|——————————————————————|

[/restrict]