Home > Mini-HD > [MINI-HD 1080P] Solo: A Star Wars Story (2018) ฮาน โซโล: ตำนานสตาร์ วอร์ส [พากย์ไทยโรง 5.1 + เสียงอังกฤษ DTS] [บรรยายอังกฤษ] [MKV]

[MINI-HD 1080P] Solo: A Star Wars Story (2018) ฮาน โซโล: ตำนานสตาร์ วอร์ส [พากย์ไทยโรง 5.1 + เสียงอังกฤษ DTS] [บรรยายอังกฤษ] [MKV]

[MINI-HD 1080P] Solo: A Star Wars Story (2018) ฮาน โซโล: ตำนานสตาร์ วอร์ส

Solo A Star Wars Story (2018)_1080p.BluRay.AC-3.THR5.1.H264[Load2up.com].mkv
Format : Matroska
Format version : Version 4 / Version 2
File size : 4.20 GiB
Duration : 2 h 14 min
Overall bit rate : 4 459 kb/s
Movie name : Solo A Star Wars Story (2018)_1080p.BluRay.AC-3.THR5.1.H264
Encoded date : UTC 2018-09-11 04:52:17
Writing application : mkvmerge v9.9.0 (‘Pick Up’) 64bit
Writing library : libebml v1.3.4 + libmatroska v1.4.5

Video
ID : 1
Format : AVC
Format/Info : Advanced Video Codec
Format profile : [email protected]
Format settings, CABAC : Yes
Format settings, ReFrames : 4 frames
Codec ID : V_MPEG4/ISO/AVC
Duration : 2 h 14 min
Bit rate : 2 500 kb/s
Width : 1 920 pixels
Height : 804 pixels
Display aspect ratio : 2.40:1
Frame rate mode : Constant
Frame rate : 23.976 (23976/1000) FPS
Color space : YUV
Chroma subsampling : 4:2:0
Bit depth : 8 bits
Scan type : Progressive
Bits/(Pixel*Frame) : 0.068
Stream size : 2.35 GiB (56%)
Title : Solo A Star Wars Story (2018)_1080p.BluRay.AC-3.THR5.1.H264
Writing library : x264 core 152 r2851M ba24899
Language : English
Default : Yes
Forced : No

Audio #1
ID : 2
Format : AC-3
Format/Info : Audio Coding 3
Format settings, Endianness : Big
Codec ID : A_AC3
Duration : 2 h 14 min
Bit rate mode : Constant
Bit rate : 448 kb/s
Channel(s) : 6 channels
Channel positions : Front: L C R, Side: L R, LFE
Sampling rate : 48.0 kHz
Frame rate : 31.250 FPS (1536 spf)
Bit depth : 16 bits
Compression mode : Lossy
Stream size : 432 MiB (10%)
Title : ThaiRong 5.1 @ 448 kb/s
Language : Thai
Service kind : Complete Main
Default : Yes
Forced : Yes

Audio #2
ID : 3
Format : DTS
Format/Info : Digital Theater Systems
Mode : 16
Format settings, Endianness : Big
Codec ID : A_DTS
Duration : 2 h 14 min
Bit rate mode : Constant
Bit rate : 1 509 kb/s
Channel(s) : 6 channels
Channel positions : Front: L C R, Side: L R, LFE
Sampling rate : 48.0 kHz
Frame rate : 93.750 FPS (512 spf)
Bit depth : 24 bits
Compression mode : Lossy
Stream size : 1.42 GiB (34%)
Title : English DTS @ 1,509 kb/s
Language : English
Default : No
Forced : No

Text
ID : 4
Format : UTF-8
Codec ID : S_TEXT/UTF8
Codec ID/Info : UTF-8 Plain Text
Duration : 2 h 5 min
Bit rate : 56 b/s
Count of elements : 1957
Stream size : 51.9 KiB (0%)
Title : English
Language : English
Default : Yes
Forced : No



หมายเหตุ ทุกเว็บโหลดแทนกันได้ แต่ต้องเปลี่ยนชื่อให้เรียงกันด้วย

สำหรับสมาชิก VIP เท่านั้น!

[restrict …]

|——————————————————————|

|——————————————————————|

[/restrict]