Home > Mini-HD > [MINI-HD 1080P] Rock Dog (2016) คุณหมาขาร๊อค [พากย์ไทย + อังกฤษ DTS] [ซับอังกฤษ] [MKV] [ONE2UP]

[MINI-HD 1080P] Rock Dog (2016) คุณหมาขาร๊อค [พากย์ไทย + อังกฤษ DTS] [ซับอังกฤษ] [MKV] [ONE2UP]

[MINI-HD 1080P] Rock Dog (2016) คุณหมาขาร๊อค

Rock Dog (2016) เมื่อวิทยุตกลงมาจากฟากฟ้าสู่มือสัตว์เลื้อยคลานทิเบตแบบกว้างๆ เขาออกจากบ้านเพื่อเติมเต็มความฝันของเขา ในการเป็นนักดนตรีและเริ่มมีการจัดกิจกรรมที่ไม่คาดคิดขึ้นมากมาย

Rock.Dog.2016.1080p.BluRay.DTS.5.1.x264[Load2up.com].mkv
Format : Matroska
Format version : Version 4 / Version 2
File size : 4.66 GiB
Duration : 1 h 29 min
Overall bit rate : 7 411 kb/s
Movie name : Rock.Dog.2016.1080p.BluRay.x264
Encoded date : UTC 2017-12-02 15:43:32
Writing application : mkvmerge v17.0.0 (‘Be Ur Friend’) 64-bit
Writing library : libebml v1.3.5 + libmatroska v1.4.8

Video
ID : 1
Format : AVC
Format/Info : Advanced Video Codec
Format profile : [email protected]
Format settings, CABAC : Yes
Format settings, ReFrames : 4 frames
Codec ID : V_MPEG4/ISO/AVC
Duration : 1 h 29 min
Bit rate : 5 447 kb/s
Width : 1 920 pixels
Height : 1 080 pixels
Display aspect ratio : 16:9
Frame rate mode : Constant
Frame rate : 23.976 FPS
Color space : YUV
Chroma subsampling : 4:2:0
Bit depth : 8 bits
Scan type : Progressive
Bits/(Pixel*Frame) : 0.110
Stream size : 3.42 GiB (73%)
Title : Rock.Dog.2016.1080p.BluRay.x264
Writing library : x264 core 148 r2744 b97ae06
Language : English
Default : Yes
Forced : No

Audio #1
ID : 2
Format : DTS
Format/Info : Digital Theater Systems
Mode : 16
Format settings, Endianness : Big
Codec ID : A_DTS
Duration : 1 h 29 min
Bit rate mode : Constant
Bit rate : 1 509 kb/s
Channel(s) : 6 channels
Channel positions : Front: L C R, Side: L R, LFE
Sampling rate : 48.0 kHz
Frame rate : 93.750 FPS (512 spf)
Bit depth : 24 bits
Compression mode : Lossy
Stream size : 971 MiB (20%)
Title : DTS.5.1 -1509 Kbps
Language : English
Default : No
Forced : No

Audio #2
ID : 3
Format : AC-3
Format/Info : Audio Coding 3
Format settings, Endianness : Big
Codec ID : A_AC3
Duration : 1 h 29 min
Bit rate mode : Constant
Bit rate : 448 kb/s
Channel(s) : 2 channels
Channel positions : Front: L R
Sampling rate : 48.0 kHz
Frame rate : 31.250 FPS (1536 spf)
Bit depth : 16 bits
Compression mode : Lossy
Stream size : 288 MiB (6%)
Title : Thai ac-3 2.0 – 448 Kbps
Language : Thai
Service kind : Complete Main
Default : Yes
Forced : Yes

Text #1
ID : 4
Format : PGS
Muxing mode : zlib
Codec ID : S_HDMV/PGS
Codec ID/Info : Picture based subtitle format used on BDs/HD-DVDs
Duration : 1 h 28 min
Bit rate : 27.8 kb/s
Count of elements : 2306
Stream size : 17.7 MiB (0%)
Title : English Yellow
Language : English
Default : Yes
Forced : No

Text #2
ID : 5
Format : UTF-8
Codec ID : S_TEXT/UTF8
Codec ID/Info : UTF-8 Plain Text
Duration : 1 h 28 min
Bit rate : 60 b/s
Count of elements : 1153
Stream size : 39.6 KiB (0%)
Title : SRT
Language : English
Default : No
Forced : No



หมายเหตุ ทุกเว็บโหลดแทนกันได้ แต่ต้องเปลี่ยนชื่อให้เรียงกันด้วย

Cloud2free

สำหรับสมาชิก VIP เท่านั้น!

[restrict …]

|——————————————————————|

|——————————————————————|

[/restrict]