Home > Mini-HD > [MINI-HD 1080P] Pacific Rim: Uprising (2018) แปซิฟิค ริม ปฏิวัติพลิกโลก [พากย์ไทยโรง 2.0 + เสียงอังกฤษ 2.0] [MKV] [ONE2UP]

[MINI-HD 1080P] Pacific Rim: Uprising (2018) แปซิฟิค ริม ปฏิวัติพลิกโลก [พากย์ไทยโรง 2.0 + เสียงอังกฤษ 2.0] [MKV] [ONE2UP]

[MINI-HD 1080P] Pacific Rim: Uprising (2018) แปซิฟิค ริม ปฏิวัติพลิกโลก

เจค ชายหนุ่มหัวรั้น ผู้เคยเป็นผู้บังคับหุ่นยนต์เยเกอร์อนาคตไกลที่เลิกฝ ึกฝนเข้าไปพัวพันกับโลกอาชญากรรมแทนแต่ก็มีเหตุให้เขากลับไปรับหน้าที่พลฝึก อีกครั้ง!

Pacific.Rim.2.Uprising.2018.1080p.KORSUB.HDRip.x264.AC-3.THR2.0[load2up.com].mkv
Format : Matroska
Format version : Version 4 / Version 2
File size : 4.57 GiB
Duration : 1 h 50 min
Overall bit rate : 5 910 kb/s
Movie name : Pacific.Rim.2.Uprising.2018.1080p.KORSUB.HDRip.x264.AC-3.THR2.0
Encoded date : UTC 2018-04-18 15:50:07
Writing application : mkvmerge v9.9.0 (‘Pick Up’) 64bit
Writing library : libebml v1.3.4 + libmatroska v1.4.5

Video
ID : 1
Format : AVC
Format/Info : Advanced Video Codec
Format profile : [email protected]
Format settings, CABAC : Yes
Format settings, ReFrames : 4 frames
Codec ID : V_MPEG4/ISO/AVC
Duration : 1 h 50 min
Bit rate : 5 500 kb/s
Width : 1 920 pixels
Height : 800 pixels
Display aspect ratio : 2.40:1
Frame rate mode : Constant
Frame rate : 29.970 (30000/1001) FPS
Color space : YUV
Chroma subsampling : 4:2:0
Bit depth : 8 bits
Scan type : Progressive
Bits/(Pixel*Frame) : 0.119
Stream size : 4.25 GiB (93%)
Title : Pacific.Rim.2.Uprising.2018.1080p.KORSUB.HDRip.x264.AC-3.THR2.0
Writing library : x264 core 148 r2795M aaa9aa8
Language : Korean
Default : Yes
Forced : No

Audio #1
ID : 2
Format : AC-3
Format/Info : Audio Coding 3
Format settings, Endianness : Big
Codec ID : A_AC3
Duration : 1 h 50 min
Bit rate mode : Constant
Bit rate : 192 kb/s
Channel(s) : 2 channels
Channel positions : Front: L R
Sampling rate : 48.0 kHz
Frame rate : 31.250 FPS (1536 spf)
Bit depth : 16 bits
Compression mode : Lossy
Delay relative to video : -43 ms
Stream size : 152 MiB (3%)
Title : THR 2.0 Modified By ~Mr.Captain~
Language : Thai
Service kind : Complete Main
Default : Yes
Forced : Yes

Audio #2
ID : 3
Format : AAC
Format/Info : Advanced Audio Codec
Format profile : LC
Codec ID : A_AAC
Duration : 1 h 50 min
Bit rate : 224 kb/s
Channel(s) : 2 channels
Channel positions : Front: L R
Sampling rate : 48.0 kHz
Frame rate : 46.875 FPS (1024 spf)
Compression mode : Lossy
Delay relative to video : -43 ms
Stream size : 177 MiB (4%)
Title : English 2.0
Language : English
Default : No
Forced : No



หมายเหตุ ทุกเว็บโหลดแทนกันได้ แต่ต้องเปลี่ยนชื่อให้เรียงกันด้วย

สำหรับสมาชิก VIP เท่านั้น!

[restrict …]

|——————————————————————|

|——————————————————————|

[/restrict]