Home > Anime > [MINI-HD 1080P] Next Gen (2018) เน็กซ์เจน [พากย์ไทย 5.1 + เสียงอังกฤษ 5.1] [บรรยายไทย + อังกฤษ] [MASTER] [MKV]

[MINI-HD 1080P] Next Gen (2018) เน็กซ์เจน [พากย์ไทย 5.1 + เสียงอังกฤษ 5.1] [บรรยายไทย + อังกฤษ] [MASTER] [MKV]

[MINI-HD 1080P] Next Gen (2018) เน็กซ์เจน

Next.Gen.2018.1080p.NF.APP-DL.DDP5.1.x264[Load2up.com].mkv
Format : Matroska
Format version : Version 4 / Version 2
File size : 4.30 GiB
Duration : 1 h 45 min
Overall bit rate mode : Variable
Overall bit rate : 5 807 kb/s
Movie name : Next.Gen.2018.1080p.NF.APP-DL.DDP5.1.x264
Encoded date : UTC 2018-09-07 12:46:19
Writing application : mkvmerge v9.9.0 (‘Pick Up’) 64bit
Writing library : libebml v1.3.4 + libmatroska v1.4.5
Comment : NETFLIX BY Flix2u

Video
ID : 1
Format : AVC
Format/Info : Advanced Video Codec
Format profile : [email protected]
Format settings, CABAC : Yes
Format settings, ReFrames : 3 frames
Codec ID : V_MPEG4/ISO/AVC
Duration : 1 h 45 min
Bit rate mode : Variable
Bit rate : 5 360 kb/s
Maximum bit rate : 8 040 kb/s
Width : 1 920 pixels
Height : 1 080 pixels
Display aspect ratio : 16:9
Frame rate mode : Constant
Frame rate : 24.000 FPS
Color space : YUV
Chroma subsampling : 4:2:0
Bit depth : 8 bits
Scan type : Progressive
Bits/(Pixel*Frame) : 0.108
Stream size : 3.93 GiB (92%)
Title : Next.Gen.2018.1080p.NF.APP-DL.DDP5.1.x264
Writing library : x264 core 148 r2715 7e75228
Language : English
Default : Yes
Forced : No

Audio #1
ID : 2
Format : E-AC-3
Format/Info : Enhanced Audio Coding 3
Format settings, Endianness : Big
Codec ID : A_EAC3
Duration : 1 h 45 min
Bit rate mode : Constant
Bit rate : 192 kb/s
Channel(s) : 6 channels
Channel positions : Front: L C R, Side: L R, LFE
Sampling rate : 48.0 kHz
Frame rate : 187.500 FPS (256 spf)
Compression mode : Lossy
Stream size : 145 MiB (3%)
Title : Thai NF 5.1 @ 192 kb/s By flix2u / TH AC3
Language : Thai
Service kind : Complete Main
Default : Yes
Forced : No

Audio #2
ID : 3
Format : E-AC-3
Format/Info : Enhanced Audio Coding 3
Format settings, Endianness : Big
Codec ID : A_EAC3
Duration : 1 h 45 min
Bit rate mode : Constant
Bit rate : 192 kb/s
Channel(s) : 6 channels
Channel positions : Front: L C R, Side: L R, LFE
Sampling rate : 48.0 kHz
Frame rate : 187.500 FPS (256 spf)
Compression mode : Lossy
Stream size : 145 MiB (3%)
Title : English NF 5.1 @ 192 kb/s / EN AC3
Language : English
Service kind : Complete Main
Default : No
Forced : No

Text #1
ID : 4
Format : VobSub
Codec ID : S_VOBSUB
Codec ID/Info : Picture based subtitle format used on DVDs
Duration : 1 h 38 min
Bit rate : 8 561 b/s
Count of elements : 1041
Stream size : 6.04 MiB (0%)
Title : Thai 1080p By flix2u
Language : Thai
Default : Yes
Forced : Yes

Text #2
ID : 5
Format : VobSub
Codec ID : S_VOBSUB
Codec ID/Info : Picture based subtitle format used on DVDs
Duration : 1 h 38 min
Bit rate : 4 566 b/s
Count of elements : 1041
Stream size : 3.22 MiB (0%)
Title : Thai 720p By flix2u
Language : Thai
Default : No
Forced : No

Text #3
ID : 6
Format : PGS
Codec ID : S_HDMV/PGS
Codec ID/Info : Picture based subtitle format used on BDs/HD-DVDs
Duration : 1 h 38 min
Bit rate : 41.8 kb/s
Count of elements : 2084
Stream size : 29.5 MiB (1%)
Title : Thai PGS By flix2u / TH_PGS
Language : Thai
Default : No
Forced : No

Text #4
ID : 7
Format : PGS
Codec ID : S_HDMV/PGS
Codec ID/Info : Picture based subtitle format used on BDs/HD-DVDs
Duration : 1 h 39 min
Bit rate : 56.7 kb/s
Count of elements : 3124
Stream size : 40.5 MiB (1%)
Title : English PGS / EN_PGS
Language : English
Default : No
Forced : No



หมายเหตุ ทุกเว็บโหลดแทนกันได้ แต่ต้องเปลี่ยนชื่อให้เรียงกันด้วย

สำหรับสมาชิก VIP เท่านั้น!

[restrict …]

|——————————————————————|

|——————————————————————|

[/restrict]